  0
SECTION
  2
HEADER
  9
$ACADVER
  1
AC1027
  9
$ACADMAINTVER
 70
    55
  9
$DWGCODEPAGE
  3
ANSI_949
  9
$LASTSAVEDBY
  1
DESKTOP
  9
$REQUIREDVERSIONS
160
                 0
  9
$INSBASE
 10
0.0
 20
0.0
 30
0.0
  9
$EXTMIN
 10
-4.14025467348074
 20
-4.137542620949261
 30
-0.000000000000013
  9
$EXTMAX
 10
385.0956260704622
 20
270.288076306296
 30
0.0000000000000023
  9
$LIMMIN
 10
0.0
 20
0.0
  9
$LIMMAX
 10
420.0
 20
297.0
  9
$ORTHOMODE
 70
     1
  9
$REGENMODE
 70
     1
  9
$FILLMODE
 70
     1
  9
$QTEXTMODE
 70
     0
  9
$MIRRTEXT
 70
     0
  9
$LTSCALE
 40
5.0
  9
$ATTMODE
 70
     1
  9
$TEXTSIZE
 40
3.0
  9
$TRACEWID
 40
1.0
  9
$TEXTSTYLE
  7
Standard
  9
$CLAYER
  8
0
  9
$CELTYPE
  6
Continuous
  9
$CECOLOR
 62
     7
  9
$CELTSCALE
 40
1.0
  9
$DISPSILH
 70
     0
  9
$DIMSCALE
 40
1.0
  9
$DIMASZ
 40
2.5
  9
$DIMEXO
 40
0.625
  9
$DIMDLI
 40
3.75
  9
$DIMRND
 40
0.0
  9
$DIMDLE
 40
0.0
  9
$DIMEXE
 40
1.25
  9
$DIMTP
 40
0.0
  9
$DIMTM
 40
0.000000001
  9
$DIMTXT
 40
3.0
  9
$DIMCEN
 40
-0.5
  9
$DIMTSZ
 40
0.0
  9
$DIMTOL
 70
     0
  9
$DIMLIM
 70
     0
  9
$DIMTIH
 70
     0
  9
$DIMTOH
 70
     0
  9
$DIMSE1
 70
     0
  9
$DIMSE2
 70
     0
  9
$DIMTAD
 70
     1
  9
$DIMZIN
 70
     8
  9
$DIMBLK
  1

  9
$DIMASO
 70
     1
  9
$DIMSHO
 70
     1
  9
$DIMPOST
  1

  9
$DIMAPOST
  1

  9
$DIMALT
 70
     0
  9
$DIMALTD
 70
     3
  9
$DIMALTF
 40
0.03937007874016
  9
$DIMLFAC
 40
1.0
  9
$DIMTOFL
 70
     1
  9
$DIMTVP
 40
0.0
  9
$DIMTIX
 70
     0
  9
$DIMSOXD
 70
     0
  9
$DIMSAH
 70
     0
  9
$DIMBLK1
  1

  9
$DIMBLK2
  1

  9
$DIMSTYLE
  2
Standard
  9
$DIMCLRD
 70
     3
  9
$DIMCLRE
 70
     3
  9
$DIMCLRT
 70
     2
  9
$DIMTFAC
 40
0.7
  9
$DIMGAP
 40
0.625
  9
$DIMJUST
 70
     0
  9
$DIMSD1
 70
     0
  9
$DIMSD2
 70
     0
  9
$DIMTOLJ
 70
     0
  9
$DIMTZIN
 70
     8
  9
$DIMALTZ
 70
     0
  9
$DIMALTTZ
 70
     0
  9
$DIMUPT
 70
     0
  9
$DIMDEC
 70
     8
  9
$DIMTDEC
 70
     8
  9
$DIMALTU
 70
     2
  9
$DIMALTTD
 70
     3
  9
$DIMTXSTY
  7
Standard
  9
$DIMAUNIT
 70
     1
  9
$DIMADEC
 70
     0
  9
$DIMALTRND
 40
0.0
  9
$DIMAZIN
 70
     0
  9
$DIMDSEP
 70
    46
  9
$DIMATFIT
 70
     3
  9
$DIMFRAC
 70
     0
  9
$DIMLDRBLK
  1

  9
$DIMLUNIT
 70
     2
  9
$DIMLWD
 70
    -1
  9
$DIMLWE
 70
    -1
  9
$DIMTMOVE
 70
     0
  9
$DIMFXL
 40
1.0
  9
$DIMFXLON
 70
     0
  9
$DIMJOGANG
 40
0.7853981633974483
  9
$DIMTFILL
 70
     0
  9
$DIMTFILLCLR
 70
     0
  9
$DIMARCSYM
 70
     1
  9
$DIMLTYPE
  6

  9
$DIMLTEX1
  6

  9
$DIMLTEX2
  6

  9
$DIMTXTDIRECTION
 70
     0
  9
$LUNITS
 70
     2
  9
$LUPREC
 70
     4
  9
$SKETCHINC
 40
0.0
  9
$FILLETRAD
 40
0.0
  9
$AUNITS
 70
     0
  9
$AUPREC
 70
     0
  9
$MENU
  1
.
  9
$ELEVATION
 40
0.0
  9
$PELEVATION
 40
0.0
  9
$THICKNESS
 40
0.0
  9
$LIMCHECK
 70
     0
  9
$CHAMFERA
 40
1.5
  9
$CHAMFERB
 40
1.5
  9
$CHAMFERC
 40
0.0
  9
$CHAMFERD
 40
0.0087266462599716
  9
$SKPOLY
 70
     0
  9
$TDCREATE
 40
2455072.745932974
  9
$TDUCREATE
 40
2455072.370932974
  9
$TDUPDATE
 40
2461054.617007442
  9
$TDUUPDATE
 40
2461054.242007442
  9
$TDINDWG
 40
132.1244041782
  9
$TDUSRTIMER
 40
132.1244039931
  9
$USRTIMER
 70
     1
  9
$ANGBASE
 50
0.0
  9
$ANGDIR
 70
     0
  9
$PDMODE
 70
     0
  9
$PDSIZE
 40
0.0
  9
$PLINEWID
 40
0.0
  9
$SPLFRAME
 70
     0
  9
$SPLINETYPE
 70
     6
  9
$SPLINESEGS
 70
     8
  9
$HANDSEED
  5
43529
  9
$SURFTAB1
 70
     6
  9
$SURFTAB2
 70
     6
  9
$SURFTYPE
 70
     6
  9
$SURFU
 70
     6
  9
$SURFV
 70
     6
  9
$UCSBASE
  2

  9
$UCSNAME
  2

  9
$UCSORG
 10
0.0
 20
0.0
 30
0.0
  9
$UCSXDIR
 10
1.0
 20
0.0
 30
0.0
  9
$UCSYDIR
 10
0.0
 20
1.0
 30
0.0
  9
$UCSORTHOREF
  2

  9
$UCSORTHOVIEW
 70
     0
  9
$UCSORGTOP
 10
0.0
 20
0.0
 30
0.0
  9
$UCSORGBOTTOM
 10
0.0
 20
0.0
 30
0.0
  9
$UCSORGLEFT
 10
0.0
 20
0.0
 30
0.0
  9
$UCSORGRIGHT
 10
0.0
 20
0.0
 30
0.0
  9
$UCSORGFRONT
 10
0.0
 20
0.0
 30
0.0
  9
$UCSORGBACK
 10
0.0
 20
0.0
 30
0.0
  9
$PUCSBASE
  2

  9
$PUCSNAME
  2

  9
$PUCSORG
 10
0.0
 20
0.0
 30
0.0
  9
$PUCSXDIR
 10
1.0
 20
0.0
 30
0.0
  9
$PUCSYDIR
 10
0.0
 20
1.0
 30
0.0
  9
$PUCSORTHOREF
  2

  9
$PUCSORTHOVIEW
 70
     0
  9
$PUCSORGTOP
 10
0.0
 20
0.0
 30
0.0
  9
$PUCSORGBOTTOM
 10
0.0
 20
0.0
 30
0.0
  9
$PUCSORGLEFT
 10
0.0
 20
0.0
 30
0.0
  9
$PUCSORGRIGHT
 10
0.0
 20
0.0
 30
0.0
  9
$PUCSORGFRONT
 10
0.0
 20
0.0
 30
0.0
  9
$PUCSORGBACK
 10
0.0
 20
0.0
 30
0.0
  9
$USERI1
 70
     0
  9
$USERI2
 70
     0
  9
$USERI3
 70
     0
  9
$USERI4
 70
     0
  9
$USERI5
 70
     0
  9
$USERR1
 40
0.0
  9
$USERR2
 40
0.0
  9
$USERR3
 40
0.0
  9
$USERR4
 40
0.0
  9
$USERR5
 40
0.0
  9
$WORLDVIEW
 70
     1
  9
$SHADEDGE
 70
     3
  9
$SHADEDIF
 70
    70
  9
$TILEMODE
 70
     1
  9
$MAXACTVP
 70
    64
  9
$PINSBASE
 10
0.0
 20
0.0
 30
0.0
  9
$PLIMCHECK
 70
     0
  9
$PEXTMIN
 10
1.000000000000000E+20
 20
1.000000000000000E+20
 30
1.000000000000000E+20
  9
$PEXTMAX
 10
-1.000000000000000E+20
 20
-1.000000000000000E+20
 30
-1.000000000000000E+20
  9
$PLIMMIN
 10
-20.0
 20
-7.5
  9
$PLIMMAX
 10
277.0
 20
202.5
  9
$UNITMODE
 70
     0
  9
$VISRETAIN
 70
     1
  9
$PLINEGEN
 70
     0
  9
$PSLTSCALE
 70
     1
  9
$TREEDEPTH
 70
  3020
  9
$CMLSTYLE
  2
Standard
  9
$CMLJUST
 70
     0
  9
$CMLSCALE
 40
20.0
  9
$PROXYGRAPHICS
 70
     1
  9
$MEASUREMENT
 70
     1
  9
$CELWEIGHT
370
    -1
  9
$ENDCAPS
280
     0
  9
$JOINSTYLE
280
     0
  9
$LWDISPLAY
290
     0
  9
$INSUNITS
 70
     4
  9
$HYPERLINKBASE
  1

  9
$STYLESHEET
  1
ksm0910.ctb
  9
$XEDIT
290
     1
  9
$CEPSNTYPE
380
     0
  9
$PSTYLEMODE
290
     1
  9
$FINGERPRINTGUID
  2
{D2C70C36-9B4F-4E20-9CCB-531AA1EE4AC8}
  9
$VERSIONGUID
  2
{732539A8-2B33-407F-A3BD-4E99365DE920}
  9
$EXTNAMES
290
     1
  9
$PSVPSCALE
 40
0.0
  9
$OLESTARTUP
290
     0
  9
$SORTENTS
280
   127
  9
$INDEXCTL
280
     0
  9
$HIDETEXT
280
     1
  9
$XCLIPFRAME
280
     2
  9
$HALOGAP
280
     0
  9
$OBSCOLOR
 70
   257
  9
$OBSLTYPE
280
     0
  9
$INTERSECTIONDISPLAY
280
     0
  9
$INTERSECTIONCOLOR
 70
   257
  9
$DIMASSOC
280
     1
  9
$PROJECTNAME
  1

  9
$CAMERADISPLAY
290
     0
  9
$LENSLENGTH
 40
50.0
  9
$CAMERAHEIGHT
 40
0.0
  9
$STEPSPERSEC
 40
2.0
  9
$STEPSIZE
 40
6.0
  9
$3DDWFPREC
 40
2.0
  9
$PSOLWIDTH
 40
5.0
  9
$PSOLHEIGHT
 40
80.0
  9
$LOFTANG1
 40
1.570796326794896
  9
$LOFTANG2
 40
1.570796326794896
  9
$LOFTMAG1
 40
0.0
  9
$LOFTMAG2
 40
0.0
  9
$LOFTPARAM
 70
     7
  9
$LOFTNORMALS
280
     1
  9
$LATITUDE
 40
37.795
  9
$LONGITUDE
 40
-122.394
  9
$NORTHDIRECTION
 40
0.0
  9
$TIMEZONE
 70
 -8000
  9
$LIGHTGLYPHDISPLAY
280
     1
  9
$TILEMODELIGHTSYNCH
280
     1
  9
$CMATERIAL
347
3D
  9
$SOLIDHIST
280
     1
  9
$SHOWHIST
280
     1
  9
$DWFFRAME
280
     2
  9
$DGNFRAME
280
     0
  9
$REALWORLDSCALE
290
     1
  9
$INTERFERECOLOR
 62
     1
  9
$INTERFEREOBJVS
345
46
  9
$INTERFEREVPVS
346
47
  9
$CSHADOW
280
     0
  9
$SHADOWPLANELOCATION
 40
0.0
  0
ENDSEC
  0
SECTION
  2
CLASSES
  0
CLASS
  1
ACDBDICTIONARYWDFLT
  2
AcDbDictionaryWithDefault
  3
ObjectDBX Classes
 90
        0
 91
        1
280
     0
281
     0
  0
CLASS
  1
DICTIONARYVAR
  2
AcDbDictionaryVar
  3
ObjectDBX Classes
 90
        0
 91
       18
280
     0
281
     0
  0
CLASS
  1
TABLESTYLE
  2
AcDbTableStyle
  3
ObjectDBX Classes
 90
     4095
 91
        1
280
     0
281
     0
  0
CLASS
  1
MATERIAL
  2
AcDbMaterial
  3
ObjectDBX Classes
 90
     1153
 91
        3
280
     0
281
     0
  0
CLASS
  1
VISUALSTYLE
  2
AcDbVisualStyle
  3
ObjectDBX Classes
 90
     4095
 91
       26
280
     0
281
     0
  0
CLASS
  1
SCALE
  2
AcDbScale
  3
ObjectDBX Classes
 90
     1153
 91
       17
280
     0
281
     0
  0
CLASS
  1
MLEADERSTYLE
  2
AcDbMLeaderStyle
  3
ACDB_MLEADERSTYLE_CLASS
 90
     4095
 91
        1
280
     0
281
     0
  0
CLASS
  1
CELLSTYLEMAP
  2
AcDbCellStyleMap
  3
ObjectDBX Classes
 90
     1152
 91
        2
280
     0
281
     0
  0
CLASS
  1
SORTENTSTABLE
  2
AcDbSortentsTable
  3
ObjectDBX Classes
 90
        0
 91
        1
280
     0
281
     0
  0
CLASS
  1
DIMASSOC
  2
AcDbDimAssoc
  3
"AcDbDimAssoc|Product Desc:     AcDim ARX App For Dimension|Company:          Autodesk, Inc.|WEB Address:      www.autodesk.com"
 90
        0
 91
        0
280
     0
281
     0
  0
CLASS
  1
SOLID_BACKGROUND
  2
AcDbSolidBackground
  3
SCENEOE
 90
     4095
 91
        0
280
     0
281
     0
  0
CLASS
  1
NPOCOLLECTION
  2
AcDbImpNonPersistentObjectsCollection
  3
ObjectDBX Classes
 90
     1153
 91
        0
280
     0
281
     0
  0
CLASS
  1
ACAD_EVALUATION_GRAPH
  2
AcDbEvalGraph
  3
ObjectDBX Classes
 90
     1153
 91
        0
280
     0
281
     0
  0
CLASS
  1
ACAECUSTOBJ
  2
AcAeEditorObj
  3
AcAeEditorObj
 90
     1024
 91
        0
280
     1
281
     0
  0
CLASS
  1
ACDB_DYNAMICBLOCKPURGEPREVENTER_VERSION
  2
AcDbDynamicBlockPurgePreventer
  3
ObjectDBX Classes
 90
     1153
 91
        0
280
     0
281
     0
  0
CLASS
  1
HELIX
  2
AcDbHelix
  3
ObjectDBX Classes
 90
     4095
 91
        0
280
     0
281
     1
  0
CLASS
  1
MULTILEADER
  2
AcDbMLeader
  3
ACDB_MLEADER_CLASS
 90
     1025
 91
        3
280
     0
281
     1
  0
CLASS
  1
ACMDIMBREAKPERSREACTOR
  2
AcmDimBreakPersReactor
  3
amgDimApp().moduleName()
 90
     1023
 91
        0
280
     1
281
     0
  0
CLASS
  1
ACDB_MTEXTOBJECTCONTEXTDATA_CLASS
  2
AcDbMTextObjectContextData
  3
ObjectDBX Classes
 90
     1153
 91
        0
280
     0
281
     0
  0
CLASS
  1
BREAKDATA
  2
AcDbBreakData
  3
ObjectDBX Classes
 90
     1024
 91
        0
280
     0
281
     0
  0
CLASS
  1
EXACXREFPANELOBJECT
  2
ExAcXREFPanelObject
  3
EXAC_ESW
 90
     1025
 91
        0
280
     1
281
     0
  0
CLASS
  1
ACDBSECTIONVIEWSTYLE
  2
AcDbSectionViewStyle
  3
ObjectDBX Classes
 90
     1025
 91
        2
280
     0
281
     0
  0
CLASS
  1
ACDBDETAILVIEWSTYLE
  2
AcDbDetailViewStyle
  3
ObjectDBX Classes
 90
     1025
 91
        2
280
     0
281
     0
  0
CLASS
  1
ACDBASSOCACTION
  2
AcDbAssocAction
  3
ObjectDBX Classes
 90
     1025
 91
        0
280
     0
281
     0
  0
CLASS
  1
ACDBASSOCARRAYACTIONBODY
  2
AcDbAssocArrayActionBody
  3
ObjectDBX Classes
 90
     1025
 91
        0
280
     0
281
     0
  0
CLASS
  1
ACDBASSOCDEPENDENCY
  2
AcDbAssocDependency
  3
ObjectDBX Classes
 90
     1025
 91
        0
280
     0
281
     0
  0
CLASS
  1
ACDBASSOCVERTEXACTIONPARAM
  2
AcDbAssocVertexActionParam
  3
ObjectDBX Classes
 90
     1025
 91
        0
280
     0
281
     0
  0
CLASS
  1
ACDBASSOCARRAYPOLARPARAMETERS
  2
AcDbAssocArrayPolarParameters
  3
ObjectDBX Classes
 90
     1025
 91
        0
280
     0
281
     0
  0
CLASS
  1
ACDBASSOCNETWORK
  2
AcDbAssocNetwork
  3
ObjectDBX Classes
 90
     1025
 91
        0
280
     0
281
     0
  0
CLASS
  1
ACARRAYJIGENTITY
  2
AcArrayJigEntity
  3
ACAD_ARRAY
 90
      129
 91
        0
280
     0
281
     1
  0
ENDSEC
  0
SECTION
  2
TABLES
  0
TABLE
  2
VPORT
  5
2C
102
{ACAD_XDICTIONARY
360
31
102
}
330
0
100
AcDbSymbolTable
 70
     1
  0
VPORT
  5
2D
330
2C
100
AcDbSymbolTableRecord
100
AcDbViewportTableRecord
  2
*Active
 70
     0
 10
0.0
 20
0.0
 11
1.0
 21
1.0
 12
222.2245811670104
 22
144.901008758967
 13
0.0
 23
0.0
 14
2.0
 24
2.0
 15
2.0
 25
2.0
 16
0.0
 26
0.0
 36
1.0
 17
0.0
 27
0.0
 37
0.0
 40
442.4356021189709
 41
2.176540284360189
 42
50.0
 43
0.0
 44
0.0
 50
0.0
 51
0.0
 71
     0
 72
  1000
 73
     1
 74
     3
 75
     0
 76
     0
 77
     0
 78
     1
281
     0
 65
     1
110
0.0
120
0.0
130
0.0
111
1.0
121
0.0
131
0.0
112
0.0
122
1.0
132
0.0
 79
     0
146
0.0
348
2E
 60
     3
 61
     5
292
     1
282
     1
141
0.0
142
0.0
 63
   250
421
  3355443
1001
ACAD_NAV_VCDISPLAY
1070
     3
  0
ENDTAB
  0
TABLE
  2
LTYPE
  5
27
330
0
100
AcDbSymbolTable
 70
     4
  0
LTYPE
  5
28
330
27
100
AcDbSymbolTableRecord
100
AcDbLinetypeTableRecord
  2
ByBlock
 70
     0
  3

 72
    65
 73
     0
 40
0.0
  0
LTYPE
  5
29
330
27
100
AcDbSymbolTableRecord
100
AcDbLinetypeTableRecord
  2
ByLayer
 70
     0
  3

 72
    65
 73
     0
 40
0.0
  0
LTYPE
  5
14
330
27
100
AcDbSymbolTableRecord
100
AcDbLinetypeTableRecord
  2
Continuous
 70
     0
  3
Solid line
 72
    65
 73
     0
 40
0.0
  0
LTYPE
  5
39E15
330
27
100
AcDbSymbolTableRecord
100
AcDbLinetypeTableRecord
  2
CENTER
 70
     0
  3
____ _ ____ _ ____ _ ____ _ ____ _ ____ _ ____ 
 72
    65
 73
     4
 40
2.0
 49
1.25
 74
     0
 49
-0.25
 74
     0
 49
0.25
 74
     0
 49
-0.25
 74
     0
  0
LTYPE
  5
424C9
330
27
100
AcDbSymbolTableRecord
100
AcDbLinetypeTableRecord
  2
CENTER2
 70
     0
  3
Center (.5x) ___ _ ___ _ ___ _ ___ _ ___ _ ___
 72
    65
 73
     4
 40
1.125
 49
0.75
 74
     0
 49
-0.125
 74
     0
 49
0.125
 74
     0
 49
-0.125
 74
     0
  0
LTYPE
  5
424CA
330
27
100
AcDbSymbolTableRecord
100
AcDbLinetypeTableRecord
  2
PHANTOM2
 70
     0
  3
Phantom (.5x) ___ _ _ ___ _ _ ___ _ _ ___ _ _
 72
    65
 73
     6
 40
1.25
 49
0.625
 74
     0
 49
-0.125
 74
     0
 49
0.125
 74
     0
 49
-0.125
 74
     0
 49
0.125
 74
     0
 49
-0.125
 74
     0
  0
ENDTAB
  0
TABLE
  2
LAYER
  5
21
102
{ACAD_XDICTIONARY
360
22
102
}
330
0
100
AcDbSymbolTable
 70
     3
  0
LAYER
  5
6
102
{ACAD_XDICTIONARY
360
7
102
}
330
21
100
AcDbSymbolTableRecord
100
AcDbLayerTableRecord
  2
0
 70
     0
 62
     7
  6
Continuous
370
    -3
390
9
347
C
348
0
  0
LAYER
  5
1A4
330
21
100
AcDbSymbolTableRecord
100
AcDbLayerTableRecord
  2
DEFPOINTS
 70
     0
 62
     7
  6
Continuous
290
     0
370
    -3
390
9
347
C
348
0
  0
LAYER
  5
283CB
330
21
100
AcDbSymbolTableRecord
100
AcDbLayerTableRecord
  2
Layer 1
 70
     0
 62
     7
  6
Continuous
370
     0
390
9
347
C
348
0
  0
ENDTAB
  0
TABLE
  2
STYLE
  5
24
330
0
100
AcDbSymbolTable
 70
     4
  0
STYLE
  5
25
330
24
100
AcDbSymbolTableRecord
100
AcDbTextStyleTableRecord
  2
Standard
 70
     0
 40
3.0
 41
1.0
 50
0.0
 71
     0
 42
3.0
  3
isocp.shx
  4
whgtxt.shx
  0
STYLE
  5
35
330
24
100
AcDbSymbolTableRecord
100
AcDbTextStyleTableRecord
  2
ROMANS
 70
     0
 40
2.5
 41
1.0
 50
0.0
 71
     0
 42
2.5
  3
romans.shx
  4

  0
STYLE
  5
5C
330
24
100
AcDbSymbolTableRecord
100
AcDbTextStyleTableRecord
  2
굴림
 70
     0
 40
3.0
 41
1.0
 50
0.0
 71
     0
 42
3.0
  3

  4

1001
ACAD
1000
Gulim
1071
    33074
  0
ENDTAB
  0
TABLE
  2
VIEW
  5
2A
330
0
100
AcDbSymbolTable
 70
     0
  0
ENDTAB
  0
TABLE
  2
UCS
  5
2B
330
0
100
AcDbSymbolTable
 70
     0
  0
ENDTAB
  0
TABLE
  2
APPID
  5
32
330
0
100
AcDbSymbolTable
 70
    45
  0
APPID
  5
13
330
32
100
AcDbSymbolTableRecord
100
AcDbRegAppTableRecord
  2
ACAD
 70
     0
  0
APPID
  5
1A
330
32
100
AcDbSymbolTableRecord
100
AcDbRegAppTableRecord
  2
ACAD_PSEXT
 70
     0
  0
APPID
  5
37
330
32
100
AcDbSymbolTableRecord
100
AcDbRegAppTableRecord
  2
ACAD_DSTYLE_DIMJAG
 70
     0
  0
APPID
  5
38
330
32
100
AcDbSymbolTableRecord
100
AcDbRegAppTableRecord
  2
ACAD_DSTYLE_DIMTALN
 70
     0
  0
APPID
  5
36
330
32
100
AcDbSymbolTableRecord
100
AcDbRegAppTableRecord
  2
ACAD_DSTYLE_DIMJOGGED_JOGANGLE_SYMBOL
 70
     0
  0
APPID
  5
183
330
32
100
AcDbSymbolTableRecord
100
AcDbRegAppTableRecord
  2
AcAecLayerStandard
 70
     0
  0
APPID
  5
3DE
330
32
100
AcDbSymbolTableRecord
100
AcDbRegAppTableRecord
  2
ACAD_DSTYLE_DIMRADIAL_EXTENSION
 70
     0
  0
APPID
  5
530
330
32
100
AcDbSymbolTableRecord
100
AcDbRegAppTableRecord
  2
GRADIENTCOLOR1ACI
 70
     0
  0
APPID
  5
531
330
32
100
AcDbSymbolTableRecord
100
AcDbRegAppTableRecord
  2
GRADIENTCOLOR2ACI
 70
     0
  0
APPID
  5
30
330
32
100
AcDbSymbolTableRecord
100
AcDbRegAppTableRecord
  2
ACAD_NAV_VCDISPLAY
 70
     0
  0
APPID
  5
C34
330
32
100
AcDbSymbolTableRecord
100
AcDbRegAppTableRecord
  2
ACAD_MLEADERVER
 70
     0
  0
APPID
  5
C97
330
32
100
AcDbSymbolTableRecord
100
AcDbRegAppTableRecord
  2
ACAD_EXEMPT_FROM_CAD_STANDARDS
 70
     0
  0
APPID
  5
D79
330
32
100
AcDbSymbolTableRecord
100
AcDbRegAppTableRecord
  2
AcadAnnoMonitorAlertIconDisabled
 70
     0
  0
APPID
  5
1A45
330
32
100
AcDbSymbolTableRecord
100
AcDbRegAppTableRecord
  2
GENIUS_GENODEF_13
 70
     0
  0
APPID
  5
1A46
330
32
100
AcDbSymbolTableRecord
100
AcDbRegAppTableRecord
  2
GENIUS_GENOBJ-N-FIL_13
 70
     0
  0
APPID
  5
1A47
330
32
100
AcDbSymbolTableRecord
100
AcDbRegAppTableRecord
  2
ACAD_DSTYLE_DIMBREAK
 70
     0
  0
APPID
  5
1A48
330
32
100
AcDbSymbolTableRecord
100
AcDbRegAppTableRecord
  2
GENIUS_GENOBJ-N-HTC_13
 70
     0
  0
APPID
  5
1A49
330
32
100
AcDbSymbolTableRecord
100
AcDbRegAppTableRecord
  2
GENIUS_GENHATCH_13
 70
     0
  0
APPID
  5
1A4A
330
32
100
AcDbSymbolTableRecord
100
AcDbRegAppTableRecord
  2
GENIUS_GENREC_14
 70
     0
  0
APPID
  5
1A4B
330
32
100
AcDbSymbolTableRecord
100
AcDbRegAppTableRecord
  2
GENIUS_GENOBJ-N-REC_13
 70
     0
  0
APPID
  5
1A4C
330
32
100
AcDbSymbolTableRecord
100
AcDbRegAppTableRecord
  2
ACAUTHENVIRON
 70
     0
  0
APPID
  5
1A4D
330
32
100
AcDbSymbolTableRecord
100
AcDbRegAppTableRecord
  2
AcDbDynamicBlockTrueName
 70
     0
  0
APPID
  5
1A4E
330
32
100
AcDbSymbolTableRecord
100
AcDbRegAppTableRecord
  2
AcDbDynamicBlockGUID
 70
     0
  0
APPID
  5
1A4F
330
32
100
AcDbSymbolTableRecord
100
AcDbRegAppTableRecord
  2
AcDbBlockRepETag
 70
     0
  0
APPID
  5
1A50
330
32
100
AcDbSymbolTableRecord
100
AcDbRegAppTableRecord
  2
DCO15
 70
     0
  0
APPID
  5
1A51
330
32
100
AcDbSymbolTableRecord
100
AcDbRegAppTableRecord
  2
ACAD_DSTYLE_DIMTEXT_FILL
 70
     0
  0
APPID
  5
1A52
330
32
100
AcDbSymbolTableRecord
100
AcDbRegAppTableRecord
  2
ACAD_DSTYLE_DIM_LINETYPE
 70
     0
  0
APPID
  5
1A53
330
32
100
AcDbSymbolTableRecord
100
AcDbRegAppTableRecord
  2
ACAD_DSTYLE_DIM_EXT1_LINETYPE
 70
     0
  0
APPID
  5
1A54
330
32
100
AcDbSymbolTableRecord
100
AcDbRegAppTableRecord
  2
ACAD_DSTYLE_DIM_EXT2_LINETYPE
 70
     0
  0
APPID
  5
1A55
330
32
100
AcDbSymbolTableRecord
100
AcDbRegAppTableRecord
  2
ACAD_DSTYLE_DIMINSPECT
 70
     0
  0
APPID
  5
1A56
330
32
100
AcDbSymbolTableRecord
100
AcDbRegAppTableRecord
  2
AcadAnnotative
 70
     0
  0
APPID
  5
1A57
330
32
100
AcDbSymbolTableRecord
100
AcDbRegAppTableRecord
  2
GENIUS_GENDTOL_13
 70
     0
  0
APPID
  5
1A58
330
32
100
AcDbSymbolTableRecord
100
AcDbRegAppTableRecord
  2
GENIUS_GENFIL_13
 70
     0
  0
APPID
  5
1A59
330
32
100
AcDbSymbolTableRecord
100
AcDbRegAppTableRecord
  2
GENIUS_GENOBJ-N-CHA_13
 70
     0
  0
APPID
  5
1A5A
330
32
100
AcDbSymbolTableRecord
100
AcDbRegAppTableRecord
  2
AcadAnnotativeDecomposition
 70
     0
  0
APPID
  5
1A5B
330
32
100
AcDbSymbolTableRecord
100
AcDbRegAppTableRecord
  2
MCAD_NO_VIS
 70
     0
  0
APPID
  5
1A5C
330
32
100
AcDbSymbolTableRecord
100
AcDbRegAppTableRecord
  2
ACAD_TEMP_GRAPHIC
 70
     0
  0
APPID
  5
1A5D
330
32
100
AcDbSymbolTableRecord
100
AcDbRegAppTableRecord
  2
ACATTRIBSERVICES
 70
     0
  0
APPID
  5
1A5E
330
32
100
AcDbSymbolTableRecord
100
AcDbRegAppTableRecord
  2
DESIGNERASSEMBLIES
 70
     0
  0
APPID
  5
1A5F
330
32
100
AcDbSymbolTableRecord
100
AcDbRegAppTableRecord
  2
GENIUS_GENDIMSH_14
 70
     0
  0
APPID
  5
1A60
330
32
100
AcDbSymbolTableRecord
100
AcDbRegAppTableRecord
  2
ACAD_DSTYLE_DIMARC_LENGTH_SYMBOL
 70
     0
  0
APPID
  5
1A61
330
32
100
AcDbSymbolTableRecord
100
AcDbRegAppTableRecord
  2
ACAD_SPLINE_DATA
 70
     0
  0
APPID
  5
1A62
330
32
100
AcDbSymbolTableRecord
100
AcDbRegAppTableRecord
  2
GENIUS_GENOREF_13
 70
     0
  0
APPID
  5
1A63
330
32
100
AcDbSymbolTableRecord
100
AcDbRegAppTableRecord
  2
ACAD_DSTYLE_DIMANGULAR_EXTENSION
 70
     0
  0
APPID
  5
318CC
330
32
100
AcDbSymbolTableRecord
100
AcDbRegAppTableRecord
  2
HATCHBACKGROUNDCOLOR
 70
     0
  0
ENDTAB
  0
TABLE
  2
DIMSTYLE
  5
33
330
0
100
AcDbSymbolTable
 70
     4
100
AcDbDimStyleTable
 71
     1
340
34
  0
DIMSTYLE
105
34
102
{ACAD_REACTORS
330
42B14
330
42B1C
102
}
330
33
100
AcDbSymbolTableRecord
100
AcDbDimStyleTableRecord
  2
Standard
 70
     0
 41
2.5
 73
     0
 77
     3
 78
     8
140
2.5
141
-1.0
147
1.0
175
     1
176
     3
177
     3
178
     2
179
     8
271
     8
272
     8
275
     1
340
35
1001
ACAD_DSTYLE_DIMJOGGED_JOGANGLE_SYMBOL
1070
   384
1040
0.7853981633974483
1001
ACAD_DSTYLE_DIMJAG
1070
   388
1040
1.5
1001
ACAD_DSTYLE_DIMTALN
1070
   392
1070
     0
  0
DIMSTYLE
105
1A8
102
{ACAD_REACTORS
330
426AF
330
426B0
330
426B2
330
429E5
330
429E6
330
429EA
102
}
330
33
100
AcDbSymbolTableRecord
100
AcDbDimStyleTableRecord
  2
Standard$0
 70
     0
 41
2.5
 73
     0
 77
     3
 78
     8
140
2.5
141
-1.0
147
1.0
175
     1
176
     3
177
     3
178
     2
179
     8
271
     8
272
     8
275
     1
340
35
  0
DIMSTYLE
105
424CE
102
{ACAD_REACTORS
330
42B6B
102
}
330
33
100
AcDbSymbolTableRecord
100
AcDbDimStyleTableRecord
  2
사본 ISO-25
 70
     0
 41
2.5
 42
0.625
 43
3.75
 44
1.25
 48
0.000000001
 73
     0
 74
     0
 77
     1
 78
     8
140
3.0
141
-0.5
143
0.03937007874016
146
0.7
147
0.625
171
     3
172
     1
176
     3
177
     3
178
     2
179
     8
271
     8
272
     8
274
     3
275
     1
283
     0
284
     8
340
25
371
    -1
372
    -1
1001
ACAD_DSTYLE_DIMBREAK
1070
   391
1040
3.75
1001
ACAD_DSTYLE_DIMJAG
1070
   388
1040
1.5
1001
ACAD_DSTYLE_DIMTALN
1070
   392
1070
     0
  0
ENDTAB
  0
TABLE
  2
BLOCK_RECORD
  5
1
330
0
100
AcDbSymbolTable
 70
    10
  0
BLOCK_RECORD
  5
2
102
{ACAD_XDICTIONARY
360
3
102
}
330
1
100
AcDbSymbolTableRecord
100
AcDbBlockTableRecord
  2
*Model_Space
340
16
 70
     0
280
     1
281
     0
  0
BLOCK_RECORD
  5
1B
330
1
100
AcDbSymbolTableRecord
100
AcDbBlockTableRecord
  2
*Paper_Space
340
1E
 70
     0
280
     1
281
     0
  0
BLOCK_RECORD
  5
42745
330
1
100
AcDbSymbolTableRecord
100
AcDbBlockTableRecord
  2
*D0
340
0
 70
     0
280
     1
281
     0
  0
BLOCK_RECORD
  5
4274F
330
1
100
AcDbSymbolTableRecord
100
AcDbBlockTableRecord
  2
*D1
340
0
 70
     0
280
     1
281
     0
  0
BLOCK_RECORD
  5
42765
330
1
100
AcDbSymbolTableRecord
100
AcDbBlockTableRecord
  2
*D2
340
0
 70
     0
280
     1
281
     0
  0
BLOCK_RECORD
  5
42A66
330
1
100
AcDbSymbolTableRecord
100
AcDbBlockTableRecord
  2
*D3
340
0
 70
     0
280
     1
281
     0
  0
BLOCK_RECORD
  5
42A73
330
1
100
AcDbSymbolTableRecord
100
AcDbBlockTableRecord
  2
*D4
340
0
 70
     0
280
     1
281
     0
  0
BLOCK_RECORD
  5
42A80
330
1
100
AcDbSymbolTableRecord
100
AcDbBlockTableRecord
  2
*D5
340
0
 70
     0
280
     1
281
     0
  0
BLOCK_RECORD
  5
42BAB
330
1
100
AcDbSymbolTableRecord
100
AcDbBlockTableRecord
  2
*D6
340
0
 70
     0
280
     1
281
     0
  0
BLOCK_RECORD
  5
42C11
330
1
100
AcDbSymbolTableRecord
100
AcDbBlockTableRecord
  2
*D7
340
0
 70
     0
280
     1
281
     0
  0
BLOCK_RECORD
  5
42C1F
330
1
100
AcDbSymbolTableRecord
100
AcDbBlockTableRecord
  2
*D8
340
0
 70
     0
280
     1
281
     0
  0
ENDTAB
  0
ENDSEC
  0
SECTION
  2
BLOCKS
  0
BLOCK
  5
5
330
2
100
AcDbEntity
  8
0
100
AcDbBlockBegin
  2
*Model_Space
 70
     0
 10
0.0
 20
0.0
 30
0.0
  3
*Model_Space
  1

  0
ENDBLK
  5
15
330
2
100
AcDbEntity
  8
0
100
AcDbBlockEnd
  0
BLOCK
  5
1C
330
1B
100
AcDbEntity
 67
     1
  8
0
100
AcDbBlockBegin
  2
*Paper_Space
 70
     0
 10
0.0
 20
0.0
 30
0.0
  3
*Paper_Space
  1

  0
ENDBLK
  5
1D
330
1B
100
AcDbEntity
 67
     1
  8
0
100
AcDbBlockEnd
  0
BLOCK
  5
42746
330
42745
100
AcDbEntity
  8
0
 62
     7
100
AcDbBlockBegin
  2
*D0
 70
     1
 10
0.0
 20
0.0
 30
0.0
  3
*D0
  1

  0
LINE
  5
42E4F
330
42745
100
AcDbEntity
  8
0
  6
Continuous
 62
     3
440
 16777216
100
AcDbLine
 10
293.5002959841969
 20
159.1252452398831
 30
0.0
 11
311.7313700981882
 21
159.1252452398831
 31
0.0
  0
LINE
  5
42E50
330
42745
100
AcDbEntity
  8
0
  6
Continuous
 62
     3
440
 16777216
100
AcDbLine
 10
310.4813700981882
 20
156.6252452398831
 30
0.0
 11
310.4813700981882
 21
141.5990641375207
 31
0.0
  0
SOLID
  5
42E51
330
42745
100
AcDbEntity
  8
0
  6
Continuous
 62
     3
440
 16777216
100
AcDbTrace
 10
310.0647034315215
 20
156.6252452398831
 30
0.0
 11
310.8980367648549
 21
156.6252452398831
 31
0.0
 12
310.4813700981882
 22
159.1252452398831
 32
0.0
 13
310.4813700981882
 23
159.1252452398831
 33
0.0
  0
MTEXT
  5
42E52
330
42745
100
AcDbEntity
  8
0
  6
Continuous
 62
     2
440
 16777216
100
AcDbMText
 10
308.3563700981882
 20
146.4252452398829
 30
0.0
 40
3.0
 41
0.0
 46
0.0
 71
     5
 72
     1
  1
%%c1.00
 11
0.0000000000000001
 21
1.0
 31
0.0
 73
     1
 44
1.0
  0
POINT
  5
42E53
330
42745
100
AcDbEntity
  8
DEFPOINTS
  6
Continuous
 62
     0
440
 16777216
100
AcDbPoint
 10
292.8752959841969
 20
159.1252452398831
 30
0.0
  0
POINT
  5
42E54
330
42745
100
AcDbEntity
  8
DEFPOINTS
  6
Continuous
 62
     0
440
 16777216
100
AcDbPoint
 10
292.8752959841969
 20
133.7252452398826
 30
0.0
  0
POINT
  5
42E55
330
42745
100
AcDbEntity
  8
DEFPOINTS
  6
Continuous
 62
     0
440
 16777216
100
AcDbPoint
 10
310.4813700981882
 20
133.7252452398826
 30
0.0
  0
ENDBLK
  5
42747
330
42745
100
AcDbEntity
  8
0
 62
     7
100
AcDbBlockEnd
  0
BLOCK
  5
42750
330
4274F
100
AcDbEntity
  8
0
 62
     7
100
AcDbBlockBegin
  2
*D1
 70
     1
 10
0.0
 20
0.0
 30
0.0
  3
*D1
  1

  0
LINE
  5
42E56
330
4274F
100
AcDbEntity
  8
0
  6
Continuous
 62
     3
440
 16777216
100
AcDbLine
 10
293.78170614571
 20
165.4752452398826
 30
0.0
 11
319.7313700981878
 21
165.4752452398826
 31
0.0
  0
LINE
  5
42E57
330
4274F
100
AcDbEntity
  8
0
  6
Continuous
 62
     3
440
 16777216
100
AcDbLine
 10
318.4813700981878
 20
162.9752452398826
 30
0.0
 11
318.4813700981878
 21
141.5990641375202
 31
0.0
  0
SOLID
  5
42E58
330
4274F
100
AcDbEntity
  8
0
  6
Continuous
 62
     3
440
 16777216
100
AcDbTrace
 10
318.0647034315212
 20
162.9752452398826
 30
0.0
 11
318.8980367648545
 21
162.9752452398826
 31
0.0
 12
318.4813700981878
 22
165.4752452398826
 32
0.0
 13
318.4813700981878
 23
165.4752452398826
 33
0.0
  0
MTEXT
  5
42E59
330
4274F
100
AcDbEntity
  8
0
  6
Continuous
 62
     2
440
 16777216
100
AcDbMText
 10
316.3563700981878
 20
146.4252452398824
 30
0.0
 40
3.0
 41
0.0
 46
0.0
 71
     5
 72
     1
  1
%%c1.50
 11
0.0000000000000001
 21
1.0
 31
0.0
 73
     1
 44
1.0
  0
POINT
  5
42E5A
330
4274F
100
AcDbEntity
  8
DEFPOINTS
  6
Continuous
 62
     0
440
 16777216
100
AcDbPoint
 10
293.15670614571
 20
165.4752452398826
 30
0.0
  0
POINT
  5
42E5B
330
4274F
100
AcDbEntity
  8
DEFPOINTS
  6
Continuous
 62
     0
440
 16777216
100
AcDbPoint
 10
293.15670614571
 20
127.3752452398822
 30
0.0
  0
POINT
  5
42E5C
330
4274F
100
AcDbEntity
  8
DEFPOINTS
  6
Continuous
 62
     0
440
 16777216
100
AcDbPoint
 10
318.4813700981877
 20
127.3752452398822
 30
0.0
  0
ENDBLK
  5
42751
330
4274F
100
AcDbEntity
  8
0
 62
     7
100
AcDbBlockEnd
  0
BLOCK
  5
42766
330
42765
100
AcDbEntity
  8
0
 62
     7
100
AcDbBlockBegin
  2
*D2
 70
     1
 10
0.0
 20
0.0
 30
0.0
  3
*D2
  1

  0
LINE
  5
42E5D
330
42765
100
AcDbEntity
  8
0
  6
Continuous
 62
     3
440
 16777216
100
AcDbLine
 10
275.15670614571
 20
160.0002452398831
 30
0.0
 11
275.15670614571
 21
184.9798359678935
 31
0.0
  0
LINE
  5
42E5E
330
42765
100
AcDbEntity
  8
0
  6
Continuous
 62
     3
440
 16777216
100
AcDbLine
 10
293.65670614571
 20
165.6002452398826
 30
0.0
 11
293.65670614571
 21
184.9798359678935
 31
0.0
  0
LINE
  5
42E5F
330
42765
100
AcDbEntity
  8
0
  6
Continuous
 62
     3
440
 16777216
100
AcDbLine
 10
277.65670614571
 20
183.7298359678935
 30
0.0
 11
291.15670614571
 21
183.7298359678935
 31
0.0
  0
SOLID
  5
42E60
330
42765
100
AcDbEntity
  8
0
  6
Continuous
 62
     3
440
 16777216
100
AcDbTrace
 10
277.65670614571
 20
184.1465026345602
 30
0.0
 11
277.65670614571
 21
183.3131693012269
 31
0.0
 12
275.15670614571
 22
183.7298359678935
 32
0.0
 13
275.15670614571
 23
183.7298359678935
 33
0.0
  0
SOLID
  5
42E61
330
42765
100
AcDbEntity
  8
0
  6
Continuous
 62
     3
440
 16777216
100
AcDbTrace
 10
291.15670614571
 20
184.1465026345602
 30
0.0
 11
291.15670614571
 21
183.3131693012269
 31
0.0
 12
293.65670614571
 22
183.7298359678935
 32
0.0
 13
293.65670614571
 23
183.7298359678935
 33
0.0
  0
MTEXT
  5
42E62
330
42765
100
AcDbEntity
  8
0
  6
Continuous
 62
     2
440
 16777216
100
AcDbMText
 10
284.40670614571
 20
185.8548359678935
 30
0.0
 40
3.0
 41
0.0
 46
0.0
 71
     5
 72
     1
  1
.71
 73
     1
 44
1.0
  0
POINT
  5
42E63
330
42765
100
AcDbEntity
  8
DEFPOINTS
  6
Continuous
 62
     0
440
 16777216
100
AcDbPoint
 10
275.15670614571
 20
159.3752452398831
 30
0.0
  0
POINT
  5
42E64
330
42765
100
AcDbEntity
  8
DEFPOINTS
  6
Continuous
 62
     0
440
 16777216
100
AcDbPoint
 10
293.65670614571
 20
164.9752452398826
 30
0.0
  0
POINT
  5
42E65
330
42765
100
AcDbEntity
  8
DEFPOINTS
  6
Continuous
 62
     0
440
 16777216
100
AcDbPoint
 10
293.65670614571
 20
183.7298359678935
 30
0.0
  0
ENDBLK
  5
42767
330
42765
100
AcDbEntity
  8
0
 62
     7
100
AcDbBlockEnd
  0
BLOCK
  5
42A67
330
42A66
100
AcDbEntity
  8
0
 62
     7
100
AcDbBlockBegin
  2
*D3
 70
     1
 10
0.0
 20
0.0
 30
0.0
  3
*D3
  1

  0
LINE
  5
42E66
330
42A66
100
AcDbEntity
  8
0
  6
Continuous
 62
     3
440
 16777216
100
AcDbLine
 10
88.23170614571052
 20
124.2002452398807
 30
0.0
 11
74.83090337332545
 21
124.2002452398807
 31
0.0
  0
LINE
  5
42E67
330
42A66
100
AcDbEntity
  8
0
  6
Continuous
 62
     3
440
 16777216
100
AcDbLine
 10
88.23170614571052
 20
168.6502452398805
 30
0.0
 11
74.83090337332547
 21
168.6502452398805
 31
0.0
  0
LINE
  5
42E68
330
42A66
100
AcDbEntity
  8
0
  6
Continuous
 62
     3
440
 16777216
100
AcDbLine
 10
76.08090337332545
 20
126.7002452398807
 30
0.0
 11
76.08090337332547
 21
166.1502452398805
 31
0.0
  0
LINE
  5
42E69
330
42A66
100
AcDbEntity
  8
0
  6
Continuous
 62
     3
440
 16777216
100
AcDbLine
 10
76.08090337332547
 20
168.6502452398805
 30
0.0
 11
76.08090337332547
 21
194.0317294853366
 31
0.0
  0
SOLID
  5
42E6A
330
42A66
100
AcDbEntity
  8
0
  6
Continuous
 62
     3
440
 16777216
100
AcDbTrace
 10
75.66423670665878
 20
126.7002452398807
 30
0.0
 11
76.49757003999212
 21
126.7002452398807
 31
0.0
 12
76.08090337332545
 22
124.2002452398807
 32
0.0
 13
76.08090337332545
 23
124.2002452398807
 33
0.0
  0
SOLID
  5
42E6B
330
42A66
100
AcDbEntity
  8
0
  6
Continuous
 62
     3
440
 16777216
100
AcDbTrace
 10
75.6642367066588
 20
166.1502452398805
 30
0.0
 11
76.49757003999214
 21
166.1502452398805
 31
0.0
 12
76.08090337332547
 22
168.6502452398805
 32
0.0
 13
76.08090337332547
 23
168.6502452398805
 33
0.0
  0
MTEXT
  5
42E6C
330
42A66
100
AcDbEntity
  8
0
  6
Continuous
 62
     2
440
 16777216
100
AcDbMText
 10
73.95590337332544
 20
187.1055483829744
 30
0.0
 40
3.0
 41
0.0
 46
0.0
 71
     5
 72
     1
  1
%%C1.7500
 11
0.0000000000000001
 21
1.0
 31
0.0
 73
     1
 44
1.0
  0
POINT
  5
42E6D
330
42A66
100
AcDbEntity
  8
DEFPOINTS
  6
Continuous
 62
     0
440
 16777216
100
AcDbPoint
 10
88.85670614571052
 20
124.2002452398807
 30
0.0
  0
POINT
  5
42E6E
330
42A66
100
AcDbEntity
  8
DEFPOINTS
  6
Continuous
 62
     0
440
 16777216
100
AcDbPoint
 10
88.85670614571052
 20
168.6502452398805
 30
0.0
  0
POINT
  5
42E6F
330
42A66
100
AcDbEntity
  8
DEFPOINTS
  6
Continuous
 62
     0
440
 16777216
100
AcDbPoint
 10
76.08090337332547
 20
168.6502452398805
 30
0.0
  0
ENDBLK
  5
42A68
330
42A66
100
AcDbEntity
  8
0
 62
     7
100
AcDbBlockEnd
  0
BLOCK
  5
42A74
330
42A73
100
AcDbEntity
  8
0
 62
     7
100
AcDbBlockBegin
  2
*D4
 70
     1
 10
0.0
 20
0.0
 30
0.0
  3
*D4
  1

  0
LINE
  5
4338D
330
42A73
100
AcDbEntity
  8
0
  6
Continuous
 62
     3
440
 16777216
100
AcDbLine
 10
90.03170614571088
 20
114.6752452398806
 30
0.0
 11
66.83090337332522
 21
114.6752452398806
 31
0.0
  0
LINE
  5
4338E
330
42A73
100
AcDbEntity
  8
0
  6
Continuous
 62
     3
440
 16777216
100
AcDbLine
 10
89.73170614571024
 20
178.1752452398793
 30
0.0
 11
66.83090337332524
 21
178.1752452398793
 31
0.0
  0
LINE
  5
4338F
330
42A73
100
AcDbEntity
  8
0
  6
Continuous
 62
     3
440
 16777216
100
AcDbLine
 10
68.08090337332522
 20
117.1752452398806
 30
0.0
 11
68.08090337332524
 21
175.6752452398793
 31
0.0
  0
LINE
  5
43390
330
42A73
100
AcDbEntity
  8
0
  6
Continuous
 62
     3
440
 16777216
100
AcDbLine
 10
68.08090337332524
 20
178.1752452398793
 30
0.0
 11
68.08090337332524
 21
193.0276074446052
 31
0.0
  0
SOLID
  5
43391
330
42A73
100
AcDbEntity
  8
0
  6
Continuous
 62
     3
440
 16777216
100
AcDbTrace
 10
67.66423670665855
 20
117.1752452398806
 30
0.0
 11
68.4975700399919
 21
117.1752452398806
 31
0.0
 12
68.08090337332522
 22
114.6752452398806
 32
0.0
 13
68.08090337332522
 23
114.6752452398806
 33
0.0
  0
SOLID
  5
43392
330
42A73
100
AcDbEntity
  8
0
  6
Continuous
 62
     3
440
 16777216
100
AcDbTrace
 10
67.66423670665857
 20
175.6752452398793
 30
0.0
 11
68.49757003999191
 21
175.6752452398793
 31
0.0
 12
68.08090337332524
 22
178.1752452398793
 32
0.0
 13
68.08090337332524
 23
178.1752452398793
 33
0.0
  0
MTEXT
  5
43393
330
42A73
100
AcDbEntity
  8
0
  6
Continuous
 62
     2
440
 16777216
100
AcDbMText
 10
65.95560809773466
 20
186.8514263422431
 30
0.0
 40
3.0
 41
0.0
 46
0.0
 71
     5
 72
     1
  1
%%C2.500
 11
0.0000000000000001
 21
1.0
 31
0.0
 73
     1
 44
1.0
  0
POINT
  5
43394
330
42A73
100
AcDbEntity
  8
DEFPOINTS
  6
Continuous
 62
     0
440
 16777216
100
AcDbPoint
 10
90.65670614571088
 20
114.6752452398806
 30
0.0
  0
POINT
  5
43395
330
42A73
100
AcDbEntity
  8
DEFPOINTS
  6
Continuous
 62
     0
440
 16777216
100
AcDbPoint
 10
90.35670614571024
 20
178.1752452398793
 30
0.0
  0
POINT
  5
43396
330
42A73
100
AcDbEntity
  8
DEFPOINTS
  6
Continuous
 62
     0
440
 16777216
100
AcDbPoint
 10
68.08090337332524
 20
178.1752452398793
 30
0.0
  0
ENDBLK
  5
42A75
330
42A73
100
AcDbEntity
  8
0
 62
     7
100
AcDbBlockEnd
  0
BLOCK
  5
42A81
330
42A80
100
AcDbEntity
  8
0
 62
     7
100
AcDbBlockBegin
  2
*D5
 70
     1
 10
0.0
 20
0.0
 30
0.0
  3
*D5
  1

  0
LINE
  5
42E7A
330
42A80
100
AcDbEntity
  8
0
  6
Continuous
 62
     3
440
 16777216
100
AcDbLine
 10
28.00670614571107
 20
155.2002452398807
 30
0.0
 11
28.00670614571107
 21
168.8910232676154
 31
0.0
  0
LINE
  5
42E7B
330
42A80
100
AcDbEntity
  8
0
  6
Continuous
 62
     3
440
 16777216
100
AcDbLine
 10
20.60670614571052
 20
157.7846053259778
 30
0.0
 11
20.60670614571052
 21
168.8910232676154
 31
0.0
  0
LINE
  5
42E7C
330
42A80
100
AcDbEntity
  8
0
  6
Continuous
 62
     3
440
 16777216
100
AcDbLine
 10
25.50670614571107
 20
167.6410232676154
 30
0.0
 11
23.10670614571052
 21
167.6410232676154
 31
0.0
  0
LINE
  5
42E7D
330
42A80
100
AcDbEntity
  8
0
  6
Continuous
 62
     3
440
 16777216
100
AcDbLine
 10
20.60670614571052
 20
167.6410232676154
 30
0.0
 11
10.33956350398083
 21
167.6410232676154
 31
0.0
  0
SOLID
  5
42E7E
330
42A80
100
AcDbEntity
  8
0
  6
Continuous
 62
     3
440
 16777216
100
AcDbTrace
 10
25.50670614571107
 20
168.0576899342821
 30
0.0
 11
25.50670614571107
 21
167.2243566009487
 31
0.0
 12
28.00670614571107
 22
167.6410232676154
 32
0.0
 13
28.00670614571107
 23
167.6410232676154
 33
0.0
  0
SOLID
  5
42E7F
330
42A80
100
AcDbEntity
  8
0
  6
Continuous
 62
     3
440
 16777216
100
AcDbTrace
 10
23.10670614571052
 20
168.0576899342821
 30
0.0
 11
23.10670614571052
 21
167.2243566009487
 31
0.0
 12
20.60670614571052
 22
167.6410232676154
 32
0.0
 13
20.60670614571052
 23
167.6410232676154
 33
0.0
  0
MTEXT
  5
42E80
330
42A80
100
AcDbEntity
  8
0
  6
Continuous
 62
     2
440
 16777216
100
AcDbMText
 10
14.22313482484567
 20
169.766318543206
 30
0.0
 40
3.0
 41
0.0
 46
0.0
 71
     5
 72
     1
  1
0.29
 73
     1
 44
1.0
  0
POINT
  5
42E81
330
42A80
100
AcDbEntity
  8
DEFPOINTS
  6
Continuous
 62
     0
440
 16777216
100
AcDbPoint
 10
28.00670614571107
 20
154.5752452398807
 30
0.0
  0
POINT
  5
42E82
330
42A80
100
AcDbEntity
  8
DEFPOINTS
  6
Continuous
 62
     0
440
 16777216
100
AcDbPoint
 10
20.60670614571052
 20
157.1596053259778
 30
0.0
  0
POINT
  5
42E83
330
42A80
100
AcDbEntity
  8
DEFPOINTS
  6
Continuous
 62
     0
440
 16777216
100
AcDbPoint
 10
20.60670614571052
 20
167.6410232676154
 30
0.0
  0
ENDBLK
  5
42A82
330
42A80
100
AcDbEntity
  8
0
 62
     7
100
AcDbBlockEnd
  0
BLOCK
  5
42BAC
330
42BAB
100
AcDbEntity
  8
0
 62
     7
100
AcDbBlockBegin
  2
*D6
 70
     1
 10
0.0
 20
0.0
 30
0.0
  3
*D6
  1

  0
LINE
  5
42E97
330
42BAB
100
AcDbEntity
  8
0
  6
Continuous
 62
     3
440
 16777216
100
AcDbLine
 10
108.5317061457116
 20
124.032776994629
 30
0.0
 11
122.8963284068412
 21
120.1837880601811
 31
0.0
  0
LINE
  5
42E98
330
42BAB
100
AcDbEntity
  8
0
  6
Continuous
 62
     3
440
 16777216
100
AcDbLine
 10
121.6463284068412
 20
123.0187245507201
 30
0.0
 11
121.6463284068412
 21
142.4151157795841
 31
0.0
  0
SOLID
  5
42E99
330
42BAB
100
AcDbEntity
  8
0
  6
Continuous
 62
     3
440
 16777216
100
AcDbTrace
 10
121.2296617401745
 20
123.0187245507201
 30
0.0
 11
122.0629950735079
 21
123.0187245507201
 31
0.0
 12
121.6463284068412
 22
120.5187245507201
 32
0.0
 13
121.6463284068412
 23
120.5187245507201
 33
0.0
  0
MTEXT
  5
42E9A
330
42BAB
100
AcDbEntity
  8
0
  6
Continuous
 62
     2
440
 16777216
100
AcDbMText
 10
119.5213284068412
 20
137.5279837452282
 30
0.0
 40
3.0
 41
0.0
 46
0.0
 71
     5
 72
     1
  1
%%C1.75
 11
0.0000000000000001
 21
1.0
 31
0.0
 73
     1
 44
1.0
  0
POINT
  5
42E9B
330
42BAB
100
AcDbEntity
  8
DEFPOINTS
  6
Continuous
 62
     0
440
 16777216
100
AcDbPoint
 10
107.9067061457116
 20
168.6502452398646
 30
0.0
  0
POINT
  5
42E9C
330
42BAB
100
AcDbEntity
  8
DEFPOINTS
  6
Continuous
 62
     0
440
 16777216
100
AcDbPoint
 10
107.9067061457116
 20
124.2002452398984
 30
0.0
  0
POINT
  5
42E9D
330
42BAB
100
AcDbEntity
  8
DEFPOINTS
  6
Continuous
 62
     0
440
 16777216
100
AcDbPoint
 10
121.6463284068412
 20
120.5187245507201
 30
0.0
  0
ENDBLK
  5
42BAD
330
42BAB
100
AcDbEntity
  8
0
 62
     7
100
AcDbBlockEnd
  0
BLOCK
  5
42C12
330
42C11
100
AcDbEntity
  8
0
 62
     7
100
AcDbBlockBegin
  2
*D7
 70
     1
 10
0.0
 20
0.0
 30
0.0
  3
*D7
  1

  0
LINE
  5
42E84
330
42C11
100
AcDbEntity
  8
0
  6
Continuous
 62
     3
440
 16777216
100
AcDbLine
 10
350.0211511178218
 20
167.5189952398851
 30
0.0
 11
350.0211511178217
 21
175.035214441737
 31
0.0
  0
LINE
  5
42E85
330
42C11
100
AcDbEntity
  8
0
  6
Continuous
 62
     3
440
 16777216
100
AcDbLine
 10
335.1056174521676
 20
161.3407789055384
 30
0.0
 11
329.7908478856534
 21
166.6555484720523
 31
0.0
  0
ARC
  5
42E86
330
42C11
100
AcDbEntity
  8
0
  6
Continuous
 62
     3
440
 16777216
100
AcDbCircle
 10
350.0211511178218
 20
146.4252452398848
 30
0.0
 40
27.35996920185224
100
AcDbArc
 50
95.23718888933361
 51
129.7628111106676
  0
SOLID
  5
42E87
330
42C11
100
AcDbEntity
  8
0
  6
Continuous
 62
     3
440
 16777216
100
AcDbTrace
 10
347.5047253020025
 20
174.0872280583
 30
0.0
 11
347.5427979569452
 21
173.2547648955174
 31
0.0
 12
350.0211511178218
 22
173.785214441737
 32
0.0
 13
350.0211511178218
 23
173.785214441737
 33
0.0
  0
SOLID
  5
42E88
330
42C11
100
AcDbEntity
  8
0
  6
Continuous
 62
     3
440
 16777216
100
AcDbTrace
 10
332.8022761595767
 20
167.1490408505909
 30
0.0
 11
332.2405572445728
 21
167.7646026305703
 31
0.0
 12
330.6747313621366
 22
165.7716649955692
 32
0.0
 13
330.6747313621366
 23
165.7716649955692
 33
0.0
  0
MTEXT
  5
42E89
330
42C11
100
AcDbEntity
  8
0
  6
Continuous
 62
     2
440
 16777216
100
AcDbMText
 10
338.7377419004778
 20
173.6658048022015
 30
0.0
 40
3.0
 41
0.0
 46
0.0
 71
     5
 72
     1
  1
8-45°
 11
0.9238795325112837
 21
0.3826834323650976
 31
0.0
 73
     1
 44
1.0
  0
POINT
  5
42E8A
330
42C11
100
AcDbEntity
  8
DEFPOINTS
  6
Continuous
 62
     0
440
 16777216
100
AcDbPoint
 10
342.9398700149638
 20
172.8529460984273
 30
0.0
  0
POINT
  5
42E8B
330
42C11
100
AcDbEntity
  8
DEFPOINTS
  6
Continuous
 62
     0
440
 16777216
100
AcDbPoint
 10
349.3140443366356
 20
147.1323520210709
 30
0.0
  0
POINT
  5
42E8C
330
42C11
100
AcDbEntity
  8
DEFPOINTS
  6
Continuous
 62
     0
440
 16777216
100
AcDbPoint
 10
350.0211511178218
 20
147.4252452398851
 30
0.0
  0
POINT
  5
42E8D
330
42C11
100
AcDbEntity
  8
DEFPOINTS
  6
Continuous
 62
     0
440
 16777216
100
AcDbPoint
 10
350.0211511178218
 20
166.8939952398851
 30
0.0
  0
POINT
  5
42E8E
330
42C11
100
AcDbEntity
  8
DEFPOINTS
  6
Continuous
 62
     0
440
 16777216
100
AcDbPoint
 10
335.5475591904092
 20
160.8988371672968
 30
0.0
  0
ENDBLK
  5
42C13
330
42C11
100
AcDbEntity
  8
0
 62
     7
100
AcDbBlockEnd
  0
BLOCK
  5
42C20
330
42C1F
100
AcDbEntity
  8
0
 62
     7
100
AcDbBlockBegin
  2
*D8
 70
     1
 10
0.0
 20
0.0
 30
0.0
  3
*D8
  1

  0
LINE
  5
42E8F
330
42C1F
100
AcDbEntity
  8
0
  6
Continuous
 62
     3
440
 16777216
100
AcDbLine
 10
321.9143408276985
 20
127.5040341170231
 30
0.0
 11
334.7782715799159
 21
136.1638979407751
 31
0.0
  0
LINE
  5
42E90
330
42C1F
100
AcDbEntity
  8
0
  6
Continuous
 62
     3
440
 16777216
100
AcDbLine
 10
365.2640306557316
 20
156.6865925389849
 30
0.0
 11
367.3378918173517
 21
158.0826942123324
 31
0.0
  0
MTEXT
  5
42E91
330
42C1F
100
AcDbEntity
  8
0
  6
Continuous
 62
     2
440
 16777216
100
AcDbMText
 10
324.7815828385587
 20
131.9962343330457
 30
0.0
 40
3.0
 41
0.0
 46
0.0
 71
     5
 72
     1
  1
%%c1.25
 11
0.8295444646480268
 21
0.5584406693390254
 31
0.0
 73
     1
 44
1.0
  0
LINE
  5
42E92
330
42C1F
100
AcDbEntity
  8
0
  6
Continuous
 62
     3
440
 16777216
100
AcDbLine
 10
363.1901694941116
 20
155.2904908656373
 30
0.0
 11
336.852132741536
 21
137.5599996141226
 31
0.0
  0
SOLID
  5
42E93
330
42C1F
100
AcDbEntity
  8
0
  6
Continuous
 62
     3
440
 16777216
100
AcDbTrace
 10
365.031347043507
 20
157.0322360659215
 30
0.0
 11
365.4967142679562
 21
156.3409490120482
 31
0.0
 12
363.1901694941116
 22
155.2904908656373
 32
0.0
 13
363.1901694941116
 23
155.2904908656373
 33
0.0
  0
SOLID
  5
42E94
330
42C1F
100
AcDbEntity
  8
0
  6
Continuous
 62
     3
440
 16777216
100
AcDbTrace
 10
334.5455879676913
 20
136.5095414677118
 30
0.0
 11
335.0109551921405
 21
135.8182544138384
 31
0.0
 12
336.852132741536
 22
137.5599996141226
 32
0.0
 13
336.852132741536
 23
137.5599996141226
 33
0.0
  0
POINT
  5
42E95
330
42C1F
100
AcDbEntity
  8
DEFPOINTS
  6
Continuous
 62
     0
440
 16777216
100
AcDbPoint
 10
336.852132741536
 20
137.5599996141226
 30
0.0
  0
POINT
  5
42E96
330
42C1F
100
AcDbEntity
  8
DEFPOINTS
  6
Continuous
 62
     0
440
 16777216
100
AcDbPoint
 10
363.1901694941116
 20
155.2904908656373
 30
0.0
  0
ENDBLK
  5
42C21
330
42C1F
100
AcDbEntity
  8
0
 62
     7
100
AcDbBlockEnd
  0
ENDSEC
  0
SECTION
  2
ENTITIES
  0
LWPOLYLINE
  5
3C9CD
330
2
100
AcDbEntity
  8
0
 62
     0
100
AcDbPolyline
 90
        4
 70
     1
 43
0.0
 10
0.5
 20
0.5
 10
0.5
 20
265.6335603553198
 10
380.4370575
 20
265.6335603553198
 10
380.4370575
 20
0.5
  0
LINE
  5
3C9CE
330
2
100
AcDbEntity
  8
0
  6
Continuous
 62
     7
100
AcDbLine
 10
285.452793125
 20
-4.133378749999968
 30
0.0
 11
285.452793125
 21
0.5
 31
0.0
  0
LINE
  5
3C9CF
330
2
100
AcDbEntity
  8
0
  6
Continuous
 62
     7
100
AcDbLine
 10
280.8194143749997
 20
0.5
 30
0.0
 11
280.8194143749997
 21
37.78440692496682
 31
0.0
  0
LINE
  5
3C9D0
330
2
100
AcDbEntity
  8
0
  6
Continuous
 62
     7
100
AcDbLine
 10
95.48426437500005
 20
-4.133378749999968
 30
0.0
 11
95.48426437500005
 21
0.5
 31
0.0
  0
LINE
  5
3C9D1
330
2
100
AcDbEntity
  8
0
  6
Continuous
 62
     7
100
AcDbLine
 10
285.452793125
 20
270.2669391053198
 30
0.0
 11
285.452793125
 21
265.6335603553198
 31
0.0
  0
LINE
  5
3C9D2
330
2
100
AcDbEntity
  8
0
  6
Continuous
 62
     7
100
AcDbLine
 10
95.48426437500005
 20
270.2669391053198
 30
0.0
 11
95.48426437500005
 21
265.6335603553198
 31
0.0
  0
LINE
  5
3C9D3
330
2
100
AcDbEntity
  8
0
  6
Continuous
 62
     7
100
AcDbLine
 10
-4.133378749999968
 20
66.78339008882997
 30
0.0
 11
0.5
 21
66.78339008882997
 31
0.0
  0
LINE
  5
3C9D4
330
2
100
AcDbEntity
  8
0
  6
Continuous
 62
     7
100
AcDbLine
 10
-4.133378749999968
 20
199.3501702664898
 30
0.0
 11
0.5
 21
199.3501702664898
 31
0.0
  0
LINE
  5
3C9D5
330
2
100
AcDbEntity
  8
0
  6
Continuous
 62
     7
100
AcDbLine
 10
385.0704362500001
 20
66.78339008882997
 30
0.0
 11
380.4370575
 21
66.78339008882997
 31
0.0
  0
LINE
  5
3C9D6
330
2
100
AcDbEntity
  8
0
  6
Continuous
 62
     7
100
AcDbLine
 10
385.0704362500001
 20
199.3501702664898
 30
0.0
 11
380.4370575
 21
199.3501702664898
 31
0.0
  0
LINE
  5
3C9D7
330
2
100
AcDbEntity
  8
0
  6
Continuous
 62
     7
100
AcDbLine
 10
280.8194143749997
 20
25.35627128331121
 30
0.0
 11
380.4370575
 21
25.35627128331121
 31
0.0
  0
LINE
  5
3C9D8
330
2
100
AcDbEntity
  8
0
  6
Continuous
 62
     7
100
AcDbLine
 10
280.8194143749997
 20
37.78440692496682
 30
0.0
 11
380.4370575
 21
37.78440692496682
 31
0.0
  0
LINE
  5
3C9D9
330
2
100
AcDbEntity
  8
0
  6
Continuous
 62
     7
100
AcDbLine
 10
280.8194143749997
 20
12.9281356416556
 30
0.0
 11
380.4370575
 21
12.9281356416556
 31
0.0
  0
LINE
  5
3C9DA
330
2
100
AcDbEntity
  8
0
  6
Continuous
 62
     7
100
AcDbLine
 10
380.4370575
 20
133.0667801776598
 30
0.0
 11
385.0704362500001
 21
133.0667801776598
 31
0.0
  0
LINE
  5
3C9DB
330
2
100
AcDbEntity
  8
0
  6
Continuous
 62
     7
100
AcDbLine
 10
382.7537468750001
 20
131.4914314026598
 30
0.0
 11
382.7537468750001
 21
134.6421289526599
 31
0.0
  0
LINE
  5
3C9DC
330
2
100
AcDbEntity
  8
0
  6
Continuous
 62
     7
100
AcDbLine
 10
382.7537468750001
 20
131.4914314026598
 30
0.0
 11
380.4370575
 21
133.0667801776598
 31
0.0
  0
LINE
  5
3C9DD
330
2
100
AcDbEntity
  8
0
  6
Continuous
 62
     7
100
AcDbLine
 10
380.4370575
 20
133.0667801776598
 30
0.0
 11
382.7537468750001
 21
134.6421289526599
 31
0.0
  0
LINE
  5
3C9DE
330
2
100
AcDbEntity
  8
0
  6
Continuous
 62
     7
100
AcDbLine
 10
0.5
 20
133.0667801776598
 30
0.0
 11
-4.133378749999968
 21
133.0667801776598
 31
0.0
  0
LINE
  5
3C9DF
330
2
100
AcDbEntity
  8
0
  6
Continuous
 62
     7
100
AcDbLine
 10
-1.816689375000025
 20
131.4914314026598
 30
0.0
 11
-1.816689375000025
 21
134.6421289526599
 31
0.0
  0
LINE
  5
3C9E0
330
2
100
AcDbEntity
  8
0
  6
Continuous
 62
     7
100
AcDbLine
 10
-1.816689375000025
 20
131.4914314026598
 30
0.0
 11
0.5
 21
133.0667801776598
 31
0.0
  0
LINE
  5
3C9E1
330
2
100
AcDbEntity
  8
0
  6
Continuous
 62
     7
100
AcDbLine
 10
0.5
 20
133.0667801776598
 30
0.0
 11
-1.816689375000025
 21
134.6421289526599
 31
0.0
  0
LINE
  5
3C9E2
330
2
100
AcDbEntity
  8
0
  6
Continuous
 62
     7
100
AcDbLine
 10
190.4685287500001
 20
265.6335603553198
 30
0.0
 11
190.4685287500001
 21
270.2669391053198
 31
0.0
  0
LINE
  5
3C9E3
330
2
100
AcDbEntity
  8
0
  6
Continuous
 62
     7
100
AcDbLine
 10
188.8931799749999
 20
267.9502497303198
 30
0.0
 11
192.0438775249999
 21
267.9502497303198
 31
0.0
  0
LINE
  5
3C9E4
330
2
100
AcDbEntity
  8
0
  6
Continuous
 62
     7
100
AcDbLine
 10
188.8931799749999
 20
267.9502497303198
 30
0.0
 11
190.4685287500001
 21
265.6335603553198
 31
0.0
  0
LINE
  5
3C9E5
330
2
100
AcDbEntity
  8
0
  6
Continuous
 62
     7
100
AcDbLine
 10
190.4685287500001
 20
265.6335603553198
 30
0.0
 11
192.0438775249999
 21
267.9502497303198
 31
0.0
  0
LINE
  5
3C9E6
330
2
100
AcDbEntity
  8
0
  6
Continuous
 62
     7
100
AcDbLine
 10
190.4685287500001
 20
0.5
 30
0.0
 11
190.4685287500001
 21
-4.133378749999968
 31
0.0
  0
LINE
  5
3C9E7
330
2
100
AcDbEntity
  8
0
  6
Continuous
 62
     7
100
AcDbLine
 10
188.8931799749999
 20
-1.816689375000025
 30
0.0
 11
192.0438775249999
 21
-1.816689375000025
 31
0.0
  0
LINE
  5
3C9E8
330
2
100
AcDbEntity
  8
0
  6
Continuous
 62
     7
100
AcDbLine
 10
188.8931799749999
 20
-1.816689375000025
 30
0.0
 11
190.4685287500001
 21
0.5
 31
0.0
  0
LINE
  5
3C9E9
330
2
100
AcDbEntity
  8
0
  6
Continuous
 62
     7
100
AcDbLine
 10
190.4685287500001
 20
0.5
 30
0.0
 11
192.0438775249999
 21
-1.816689375000025
 31
0.0
  0
TEXT
  5
3C9EA
330
2
100
AcDbEntity
  8
0
 62
     2
100
AcDbText
 10
47.02186218432819
 20
-3.25414053815234
 30
0.0
 40
2.594692099999999
  1
4
  7
굴림
100
AcDbText
  0
TEXT
  5
3C9EB
330
2
100
AcDbEntity
  8
0
 62
     2
100
AcDbText
 10
142.0941895630657
 20
-3.25414053815234
 30
0.0
 40
2.594692099999999
  1
3
  7
굴림
100
AcDbText
  0
TEXT
  5
3C9EC
330
2
100
AcDbEntity
  8
0
 62
     2
100
AcDbText
 10
236.9555881024932
 20
-3.25414053815234
 30
0.0
 40
2.594692099999999
  1
2
  7
굴림
100
AcDbText
  0
TEXT
  5
3C9ED
330
2
100
AcDbEntity
  8
0
 62
     2
100
AcDbText
 10
332.2295439818973
 20
-3.25414053815234
 30
0.0
 40
2.594692099999999
  1
1
  7
굴림
100
AcDbText
  0
TEXT
  5
3C9EE
330
2
100
AcDbEntity
  8
0
 62
     2
100
AcDbText
 10
47.02186218432819
 20
267.1108514968405
 30
0.0
 40
2.594692099999999
  1
4
  7
굴림
100
AcDbText
  0
TEXT
  5
3C9EF
330
2
100
AcDbEntity
  8
0
 62
     2
100
AcDbText
 10
142.0941895630657
 20
267.1108514968405
 30
0.0
 40
2.594692099999999
  1
3
  7
굴림
100
AcDbText
  0
TEXT
  5
3C9F0
330
2
100
AcDbEntity
  8
0
 62
     2
100
AcDbText
 10
236.9555881024932
 20
267.1108514968405
 30
0.0
 40
2.594692099999999
  1
2
  7
굴림
100
AcDbText
  0
TEXT
  5
3C9F1
330
2
100
AcDbEntity
  8
0
 62
     2
100
AcDbText
 10
332.2295439818973
 20
267.1108514968405
 30
0.0
 40
2.594692099999999
  1
1
  7
굴림
100
AcDbText
  0
TEXT
  5
3C9F2
330
2
100
AcDbEntity
  8
0
 62
     2
100
AcDbText
 10
-3.245795505166427
 20
32.77772959078257
 30
0.0
 40
2.594692099999999
  1
A
  7
굴림
100
AcDbText
  0
TEXT
  5
3C9F3
330
2
100
AcDbEntity
  8
0
 62
     2
100
AcDbText
 10
-3.245795505166427
 20
98.51123102445724
 30
0.0
 40
2.594692099999999
  1
B
  7
굴림
100
AcDbText
  0
TEXT
  5
3C9F4
330
2
100
AcDbEntity
  8
0
 62
     2
100
AcDbText
 10
-3.245795505166427
 20
164.8719821248133
 30
0.0
 40
2.594692099999999
  1
C
  7
굴림
100
AcDbText
  0
TEXT
  5
3C9F5
330
2
100
AcDbEntity
  8
0
 62
     2
100
AcDbText
 10
-3.245795505166427
 20
231.6413690324487
 30
0.0
 40
2.594692099999999
  1
D
  7
굴림
100
AcDbText
  0
TEXT
  5
3C9F6
330
2
100
AcDbEntity
  8
0
 62
     2
100
AcDbText
 10
381.8250537472067
 20
32.77772959078257
 30
0.0
 40
2.594692099999999
  1
A
  7
굴림
100
AcDbText
  0
TEXT
  5
3C9F7
330
2
100
AcDbEntity
  8
0
 62
     2
100
AcDbText
 10
381.8250537472067
 20
98.51123102445724
 30
0.0
 40
2.594692099999999
  1
B
  7
굴림
100
AcDbText
  0
TEXT
  5
3C9F8
330
2
100
AcDbEntity
  8
0
 62
     2
100
AcDbText
 10
381.8250537472067
 20
164.8719821248133
 30
0.0
 40
2.594692099999999
  1
C
  7
굴림
100
AcDbText
  0
TEXT
  5
3C9F9
330
2
100
AcDbEntity
  8
0
 62
     2
100
AcDbText
 10
381.8250537472067
 20
231.6413690324487
 30
0.0
 40
2.594692099999999
  1
D
  7
굴림
100
AcDbText
  0
HATCH
  5
3C9FA
330
2
100
AcDbEntity
  8
0
  6
Continuous
 62
     0
100
AcDbHatch
 10
0.0
 20
0.0
 30
0.0
210
0.0
220
0.0
230
1.0
  2
SOLID
 70
     1
 71
     1
 91
        1
 92
        5
 93
       13
 72
     4
 94
        3
 73
     0
 74
     0
 95
        8
 96
        4
 40
1.0
 40
1.0
 40
1.0
 40
1.0
 40
2.0
 40
2.0
 40
2.0
 40
2.0
 10
310.5124745005264
 20
31.34057290525057
 10
310.5124745005264
 20
31.34057290525057
 10
309.453215588194
 20
26.48980637265182
 10
309.453215588194
 20
26.48980637265182
 97
        0
 72
     4
 94
        3
 73
     0
 74
     0
 95
        8
 96
        4
 40
0.0
 40
0.0
 40
0.0
 40
0.0
 40
1.0
 40
1.0
 40
1.0
 40
1.0
 10
309.453215588194
 20
26.48980637265182
 10
309.453215588194
 20
26.48980637265182
 10
311.7831168239193
 20
26.48980637265182
 10
311.7831168239193
 20
26.48980637265182
 97
        0
 72
     4
 94
        3
 73
     0
 74
     0
 95
        8
 96
        4
 40
12.0
 40
12.0
 40
12.0
 40
12.0
 40
13.0
 40
13.0
 40
13.0
 40
13.0
 10
311.7831168239193
 20
26.48980637265182
 10
311.7831168239193
 20
26.48980637265182
 10
313.0014576735937
 20
33.96699071378773
 10
313.0014576735937
 20
33.96699071378773
 97
        0
 72
     4
 94
        3
 73
     0
 74
     0
 95
        8
 96
        4
 40
11.0
 40
11.0
 40
11.0
 40
11.0
 40
12.0
 40
12.0
 40
12.0
 40
12.0
 10
313.0014576735937
 20
33.96699071378773
 10
313.0014576735937
 20
33.96699071378773
 10
310.490986935126
 20
33.96699071378773
 10
310.490986935126
 20
33.96699071378773
 97
        0
 72
     4
 94
        3
 73
     0
 74
     0
 95
        8
 96
        4
 40
10.0
 40
10.0
 40
10.0
 40
10.0
 40
11.0
 40
11.0
 40
11.0
 40
11.0
 10
310.490986935126
 20
33.96699071378773
 10
310.490986935126
 20
33.96699071378773
 10
307.9067271575401
 20
29.8578898074203
 10
307.9067271575401
 20
29.8578898074203
 97
        0
 72
     4
 94
        3
 73
     0
 74
     0
 95
        8
 96
        4
 40
9.0
 40
9.0
 40
9.0
 40
9.0
 40
10.0
 40
10.0
 40
10.0
 40
10.0
 10
307.9067271575401
 20
29.8578898074203
 10
307.9067271575401
 20
29.8578898074203
 10
307.4517505741147
 20
33.96699071378773
 10
307.4517505741147
 20
33.96699071378773
 97
        0
 72
     4
 94
        3
 73
     0
 74
     0
 95
        8
 96
        4
 40
8.0
 40
8.0
 40
8.0
 40
8.0
 40
9.0
 40
9.0
 40
9.0
 40
9.0
 10
307.4517505741147
 20
33.96699071378773
 10
307.4517505741147
 20
33.96699071378773
 10
304.9835975407196
 20
33.96699071378773
 10
304.9835975407196
 20
33.96699071378773
 97
        0
 72
     4
 94
        3
 73
     0
 74
     0
 95
        8
 96
        4
 40
7.0
 40
7.0
 40
7.0
 40
7.0
 40
8.0
 40
8.0
 40
8.0
 40
8.0
 10
304.9835975407196
 20
33.96699071378773
 10
304.9835975407196
 20
33.96699071378773
 10
302.2619076632805
 20
26.48980637265182
 10
302.2619076632805
 20
26.48980637265182
 97
        0
 72
     4
 94
        3
 73
     0
 74
     0
 95
        8
 96
        4
 40
6.0
 40
6.0
 40
6.0
 40
6.0
 40
7.0
 40
7.0
 40
7.0
 40
7.0
 10
302.2619076632805
 20
26.48980637265182
 10
302.2619076632805
 20
26.48980637265182
 10
304.5388501194304
 20
26.48980637265182
 10
304.5388501194304
 20
26.48980637265182
 97
        0
 72
     4
 94
        3
 73
     0
 74
     0
 95
        8
 96
        4
 40
5.0
 40
5.0
 40
5.0
 40
5.0
 40
6.0
 40
6.0
 40
6.0
 40
6.0
 10
304.5388501194304
 20
26.48980637265182
 10
304.5388501194304
 20
26.48980637265182
 10
306.0747386044225
 20
31.44632623859738
 10
306.0747386044225
 20
31.44632623859738
 97
        0
 72
     4
 94
        3
 73
     0
 74
     0
 95
        8
 96
        4
 40
4.0
 40
4.0
 40
4.0
 40
4.0
 40
5.0
 40
5.0
 40
5.0
 40
5.0
 10
306.0747386044225
 20
31.44632623859738
 10
306.0747386044225
 20
31.44632623859738
 10
306.6360447725196
 20
26.48980637265182
 10
306.6360447725196
 20
26.48980637265182
 97
        0
 72
     4
 94
        3
 73
     0
 74
     0
 95
        8
 96
        4
 40
3.0
 40
3.0
 40
3.0
 40
3.0
 40
4.0
 40
4.0
 40
4.0
 40
4.0
 10
306.6360447725196
 20
26.48980637265182
 10
306.6360447725196
 20
26.48980637265182
 10
307.377508553485
 20
26.48980637265182
 10
307.377508553485
 20
26.48980637265182
 97
        0
 72
     4
 94
        3
 73
     0
 74
     0
 95
        8
 96
        4
 40
2.0
 40
2.0
 40
2.0
 40
2.0
 40
3.0
 40
3.0
 40
3.0
 40
3.0
 10
307.377508553485
 20
26.48980637265182
 10
307.377508553485
 20
26.48980637265182
 10
310.5124745005264
 20
31.34057290525057
 10
310.5124745005264
 20
31.34057290525057
 97
        0
 97
       13
330
3CA07
330
3CA06
330
3CA05
330
3CA04
330
3CA03
330
3CA02
330
3CA01
330
3CA00
330
3C9FF
330
3C9FE
330
3C9FD
330
3C9FC
330
3C9FB
 75
     1
 76
     1
 47
0.0269459378258844
 98
        1
 10
310.647614182606
 20
29.03194150196259
450
        0
451
        0
460
0.0
461
0.0
452
        0
462
1.0
453
        2
463
0.0
 63
     5
421
      255
463
1.0
 63
     2
421
 16776960
470
LINEAR
1001
GRADIENTCOLOR1ACI
1070
     5
1001
GRADIENTCOLOR2ACI
1070
     2
1001
ACAD
1010
0.0
1020
0.0
1030
0.0
  0
SPLINE
  5
3C9FB
102
{ACAD_REACTORS
330
3C9FA
102
}
330
2
100
AcDbEntity
  8
Layer 1
100
AcDbSpline
210
0.0
220
0.0
230
1.0
 70
    24
 71
     3
 72
     8
 73
     4
 74
     0
 42
0.000000001
 43
0.0000000001
 40
0.0
 40
0.0
 40
0.0
 40
0.0
 40
1.0
 40
1.0
 40
1.0
 40
1.0
 10
311.7831168239193
 20
26.48980637265182
 30
0.0
 10
311.7831168239193
 20
26.48980637265182
 30
0.0
 10
309.453215588194
 20
26.48980637265182
 30
0.0
 10
309.453215588194
 20
26.48980637265182
 30
0.0
  0
SPLINE
  5
3C9FC
102
{ACAD_REACTORS
330
3C9FA
102
}
330
2
100
AcDbEntity
  8
Layer 1
100
AcDbSpline
210
0.0
220
0.0
230
1.0
 70
    24
 71
     3
 72
     8
 73
     4
 74
     0
 42
0.000000001
 43
0.0000000001
 40
1.0
 40
1.0
 40
1.0
 40
1.0
 40
2.0
 40
2.0
 40
2.0
 40
2.0
 10
309.453215588194
 20
26.48980637265182
 30
0.0
 10
309.453215588194
 20
26.48980637265182
 30
0.0
 10
310.5124745005264
 20
31.34057290525057
 30
0.0
 10
310.5124745005264
 20
31.34057290525057
 30
0.0
  0
SPLINE
  5
3C9FD
102
{ACAD_REACTORS
330
3C9FA
102
}
330
2
100
AcDbEntity
  8
Layer 1
100
AcDbSpline
210
0.0
220
0.0
230
1.0
 70
    24
 71
     3
 72
     8
 73
     4
 74
     0
 42
0.000000001
 43
0.0000000001
 40
2.0
 40
2.0
 40
2.0
 40
2.0
 40
3.0
 40
3.0
 40
3.0
 40
3.0
 10
310.5124745005264
 20
31.34057290525057
 30
0.0
 10
310.5124745005264
 20
31.34057290525057
 30
0.0
 10
307.377508553485
 20
26.48980637265182
 30
0.0
 10
307.377508553485
 20
26.48980637265182
 30
0.0
  0
SPLINE
  5
3C9FE
102
{ACAD_REACTORS
330
3C9FA
102
}
330
2
100
AcDbEntity
  8
Layer 1
100
AcDbSpline
210
0.0
220
0.0
230
1.0
 70
    24
 71
     3
 72
     8
 73
     4
 74
     0
 42
0.000000001
 43
0.0000000001
 40
3.0
 40
3.0
 40
3.0
 40
3.0
 40
4.0
 40
4.0
 40
4.0
 40
4.0
 10
307.377508553485
 20
26.48980637265182
 30
0.0
 10
307.377508553485
 20
26.48980637265182
 30
0.0
 10
306.6360447725196
 20
26.48980637265182
 30
0.0
 10
306.6360447725196
 20
26.48980637265182
 30
0.0
  0
SPLINE
  5
3C9FF
102
{ACAD_REACTORS
330
3C9FA
102
}
330
2
100
AcDbEntity
  8
Layer 1
100
AcDbSpline
210
0.0
220
0.0
230
1.0
 70
    24
 71
     3
 72
     8
 73
     4
 74
     0
 42
0.000000001
 43
0.0000000001
 40
4.0
 40
4.0
 40
4.0
 40
4.0
 40
5.0
 40
5.0
 40
5.0
 40
5.0
 10
306.6360447725196
 20
26.48980637265182
 30
0.0
 10
306.6360447725196
 20
26.48980637265182
 30
0.0
 10
306.0747386044225
 20
31.44632623859738
 30
0.0
 10
306.0747386044225
 20
31.44632623859738
 30
0.0
  0
SPLINE
  5
3CA00
102
{ACAD_REACTORS
330
3C9FA
102
}
330
2
100
AcDbEntity
  8
Layer 1
100
AcDbSpline
210
0.0
220
0.0
230
1.0
 70
    24
 71
     3
 72
     8
 73
     4
 74
     0
 42
0.000000001
 43
0.0000000001
 40
5.0
 40
5.0
 40
5.0
 40
5.0
 40
6.0
 40
6.0
 40
6.0
 40
6.0
 10
306.0747386044225
 20
31.44632623859738
 30
0.0
 10
306.0747386044225
 20
31.44632623859738
 30
0.0
 10
304.5388501194304
 20
26.48980637265182
 30
0.0
 10
304.5388501194304
 20
26.48980637265182
 30
0.0
  0
SPLINE
  5
3CA01
102
{ACAD_REACTORS
330
3C9FA
102
}
330
2
100
AcDbEntity
  8
Layer 1
100
AcDbSpline
210
0.0
220
0.0
230
1.0
 70
    24
 71
     3
 72
     8
 73
     4
 74
     0
 42
0.000000001
 43
0.0000000001
 40
6.0
 40
6.0
 40
6.0
 40
6.0
 40
7.0
 40
7.0
 40
7.0
 40
7.0
 10
304.5388501194304
 20
26.48980637265182
 30
0.0
 10
304.5388501194304
 20
26.48980637265182
 30
0.0
 10
302.2619076632805
 20
26.48980637265182
 30
0.0
 10
302.2619076632805
 20
26.48980637265182
 30
0.0
  0
SPLINE
  5
3CA02
102
{ACAD_REACTORS
330
3C9FA
102
}
330
2
100
AcDbEntity
  8
Layer 1
100
AcDbSpline
210
0.0
220
0.0
230
1.0
 70
    24
 71
     3
 72
     8
 73
     4
 74
     0
 42
0.000000001
 43
0.0000000001
 40
7.0
 40
7.0
 40
7.0
 40
7.0
 40
8.0
 40
8.0
 40
8.0
 40
8.0
 10
302.2619076632805
 20
26.48980637265182
 30
0.0
 10
302.2619076632805
 20
26.48980637265182
 30
0.0
 10
304.9835975407196
 20
33.96699071378773
 30
0.0
 10
304.9835975407196
 20
33.96699071378773
 30
0.0
  0
SPLINE
  5
3CA03
102
{ACAD_REACTORS
330
3C9FA
102
}
330
2
100
AcDbEntity
  8
Layer 1
100
AcDbSpline
210
0.0
220
0.0
230
1.0
 70
    24
 71
     3
 72
     8
 73
     4
 74
     0
 42
0.000000001
 43
0.0000000001
 40
8.0
 40
8.0
 40
8.0
 40
8.0
 40
9.0
 40
9.0
 40
9.0
 40
9.0
 10
304.9835975407196
 20
33.96699071378773
 30
0.0
 10
304.9835975407196
 20
33.96699071378773
 30
0.0
 10
307.4517505741147
 20
33.96699071378773
 30
0.0
 10
307.4517505741147
 20
33.96699071378773
 30
0.0
  0
SPLINE
  5
3CA04
102
{ACAD_REACTORS
330
3C9FA
102
}
330
2
100
AcDbEntity
  8
Layer 1
100
AcDbSpline
210
0.0
220
0.0
230
1.0
 70
    24
 71
     3
 72
     8
 73
     4
 74
     0
 42
0.000000001
 43
0.0000000001
 40
9.0
 40
9.0
 40
9.0
 40
9.0
 40
10.0
 40
10.0
 40
10.0
 40
10.0
 10
307.4517505741147
 20
33.96699071378773
 30
0.0
 10
307.4517505741147
 20
33.96699071378773
 30
0.0
 10
307.9067271575401
 20
29.8578898074203
 30
0.0
 10
307.9067271575401
 20
29.8578898074203
 30
0.0
  0
SPLINE
  5
3CA05
102
{ACAD_REACTORS
330
3C9FA
102
}
330
2
100
AcDbEntity
  8
Layer 1
100
AcDbSpline
210
0.0
220
0.0
230
1.0
 70
    24
 71
     3
 72
     8
 73
     4
 74
     0
 42
0.000000001
 43
0.0000000001
 40
10.0
 40
10.0
 40
10.0
 40
10.0
 40
11.0
 40
11.0
 40
11.0
 40
11.0
 10
307.9067271575401
 20
29.8578898074203
 30
0.0
 10
307.9067271575401
 20
29.8578898074203
 30
0.0
 10
310.490986935126
 20
33.96699071378773
 30
0.0
 10
310.490986935126
 20
33.96699071378773
 30
0.0
  0
SPLINE
  5
3CA06
102
{ACAD_REACTORS
330
3C9FA
102
}
330
2
100
AcDbEntity
  8
Layer 1
100
AcDbSpline
210
0.0
220
0.0
230
1.0
 70
    24
 71
     3
 72
     8
 73
     4
 74
     0
 42
0.000000001
 43
0.0000000001
 40
11.0
 40
11.0
 40
11.0
 40
11.0
 40
12.0
 40
12.0
 40
12.0
 40
12.0
 10
310.490986935126
 20
33.96699071378773
 30
0.0
 10
310.490986935126
 20
33.96699071378773
 30
0.0
 10
313.0014576735937
 20
33.96699071378773
 30
0.0
 10
313.0014576735937
 20
33.96699071378773
 30
0.0
  0
SPLINE
  5
3CA07
102
{ACAD_REACTORS
330
3C9FA
102
}
330
2
100
AcDbEntity
  8
Layer 1
100
AcDbSpline
210
0.0
220
0.0
230
1.0
 70
    24
 71
     3
 72
     8
 73
     4
 74
     0
 42
0.000000001
 43
0.0000000001
 40
12.0
 40
12.0
 40
12.0
 40
12.0
 40
13.0
 40
13.0
 40
13.0
 40
13.0
 10
313.0014576735937
 20
33.96699071378773
 30
0.0
 10
313.0014576735937
 20
33.96699071378773
 30
0.0
 10
311.7831168239193
 20
26.48980637265182
 30
0.0
 10
311.7831168239193
 20
26.48980637265182
 30
0.0
  0
HATCH
  5
3CA08
330
2
100
AcDbEntity
  8
0
  6
Continuous
 62
     0
100
AcDbHatch
 10
0.0
 20
0.0
 30
0.0
210
0.0
220
0.0
230
1.0
  2
SOLID
 70
     1
 71
     0
 91
        1
 92
        5
 93
        1
 72
     4
 94
        3
 73
     0
 74
     0
 95
       41
 96
       37
 40
0.0
 40
0.0
 40
0.0
 40
0.0
 40
1.0
 40
1.0
 40
1.0
 40
2.0
 40
2.0
 40
2.0
 40
3.0
 40
3.0
 40
3.0
 40
4.0
 40
4.0
 40
4.0
 40
5.0
 40
5.0
 40
5.0
 40
6.0
 40
6.0
 40
6.0
 40
7.0
 40
7.0
 40
7.0
 40
8.0
 40
8.0
 40
8.0
 40
9.0
 40
9.0
 40
9.0
 40
10.0
 40
10.0
 40
10.0
 40
11.0
 40
11.0
 40
11.0
 40
12.0
 40
12.0
 40
12.0
 40
12.0
 10
314.4410423849904
 20
26.48980637265182
 10
314.4410423849904
 20
26.48980637265182
 10
312.0158234595356
 20
26.48980637265182
 10
312.0158234595356
 20
26.48980637265182
 10
312.0158234595356
 20
26.48980637265182
 10
316.8664269333139
 20
33.97742175303238
 10
316.8664269333139
 20
33.97742175303238
 10
316.8664269333139
 20
33.97742175303238
 10
319.3660512391993
 20
33.97742175303238
 10
319.3660512391993
 20
33.97742175303238
 10
319.3660512391993
 20
33.97742175303238
 10
319.9275614740017
 20
26.48980637265182
 10
319.9275614740017
 20
26.48980637265182
 10
319.9275614740017
 20
26.48980637265182
 10
317.6714903626059
 20
26.48980637265182
 10
317.6714903626059
 20
26.48980637265182
 10
317.6714903626059
 20
26.48980637265182
 10
317.5972493861658
 20
27.69730072659861
 10
317.5972493861658
 20
27.69730072659861
 10
317.5972493861658
 20
27.69730072659861
 10
315.9618525587122
 20
27.69730072659861
 10
315.9618525587122
 20
27.69730072659861
 10
315.9618525587122
 20
27.69730072659861
 10
316.7737374150697
 20
29.25381394875823
 10
316.7737374150697
 20
29.25381394875823
 10
316.7737374150697
 20
29.25381394875823
 10
317.5232138357809
 20
29.25381394875823
 10
317.5232138357809
 20
29.25381394875823
 10
317.5232138357809
 20
29.25381394875823
 10
317.4277318052066
 20
31.44632623859738
 10
317.4277318052066
 20
31.44632623859738
 10
317.4277318052066
 20
31.44632623859738
 10
314.4530815728977
 20
26.506651309199
 10
314.4530815728977
 20
26.506651309199
 10
314.4530815728977
 20
26.506651309199
 10
314.4410423849904
 20
26.48980637265182
 10
314.4410423849904
 20
26.48980637265182
 97
        0
 97
        0
 75
     1
 76
     1
 47
0.0269459378258844
 98
        1
 10
318.9986623285687
 20
29.58107197228766
450
        0
451
        0
460
0.0
461
0.0
452
        0
462
1.0
453
        2
463
0.0
 63
     5
421
      255
463
1.0
 63
     2
421
 16776960
470
LINEAR
1001
GRADIENTCOLOR1ACI
1070
     5
1001
GRADIENTCOLOR2ACI
1070
     2
1001
ACAD
1010
0.0
1020
0.0
1030
0.0
  0
SPLINE
  5
3CA09
330
2
100
AcDbEntity
  8
Layer 1
100
AcDbSpline
210
0.0
220
0.0
230
1.0
 70
    11
 71
     3
 72
    41
 73
    37
 74
     0
 42
0.000000001
 43
0.0000000001
 40
0.0
 40
0.0
 40
0.0
 40
0.0
 40
1.0
 40
1.0
 40
1.0
 40
2.0
 40
2.0
 40
2.0
 40
3.0
 40
3.0
 40
3.0
 40
4.0
 40
4.0
 40
4.0
 40
5.0
 40
5.0
 40
5.0
 40
6.0
 40
6.0
 40
6.0
 40
7.0
 40
7.0
 40
7.0
 40
8.0
 40
8.0
 40
8.0
 40
9.0
 40
9.0
 40
9.0
 40
10.0
 40
10.0
 40
10.0
 40
11.0
 40
11.0
 40
11.0
 40
12.0
 40
12.0
 40
12.0
 40
12.0
 10
314.4410423849904
 20
26.48980637265182
 30
0.0
 10
314.4410423849904
 20
26.48980637265182
 30
0.0
 10
312.0158234595356
 20
26.48980637265182
 30
0.0
 10
312.0158234595356
 20
26.48980637265182
 30
0.0
 10
312.0158234595356
 20
26.48980637265182
 30
0.0
 10
316.8664269333137
 20
33.97742175303238
 30
0.0
 10
316.8664269333137
 20
33.97742175303238
 30
0.0
 10
316.8664269333137
 20
33.97742175303238
 30
0.0
 10
319.3660512391993
 20
33.97742175303238
 30
0.0
 10
319.3660512391993
 20
33.97742175303238
 30
0.0
 10
319.3660512391993
 20
33.97742175303238
 30
0.0
 10
319.9275614740017
 20
26.48980637265182
 30
0.0
 10
319.9275614740017
 20
26.48980637265182
 30
0.0
 10
319.9275614740017
 20
26.48980637265182
 30
0.0
 10
317.6714903626059
 20
26.48980637265182
 30
0.0
 10
317.6714903626059
 20
26.48980637265182
 30
0.0
 10
317.6714903626059
 20
26.48980637265182
 30
0.0
 10
317.5972493861658
 20
27.69730072659861
 30
0.0
 10
317.5972493861658
 20
27.69730072659861
 30
0.0
 10
317.5972493861658
 20
27.69730072659861
 30
0.0
 10
315.9618525587122
 20
27.69730072659861
 30
0.0
 10
315.9618525587122
 20
27.69730072659861
 30
0.0
 10
315.9618525587122
 20
27.69730072659861
 30
0.0
 10
316.7737374150697
 20
29.25381394875823
 30
0.0
 10
316.7737374150697
 20
29.25381394875823
 30
0.0
 10
316.7737374150697
 20
29.25381394875823
 30
0.0
 10
317.5232138357809
 20
29.25381394875823
 30
0.0
 10
317.5232138357809
 20
29.25381394875823
 30
0.0
 10
317.5232138357809
 20
29.25381394875823
 30
0.0
 10
317.4277318052066
 20
31.44632623859738
 30
0.0
 10
317.4277318052066
 20
31.44632623859738
 30
0.0
 10
317.4277318052066
 20
31.44632623859738
 30
0.0
 10
314.4530815728977
 20
26.50665130919892
 30
0.0
 10
314.4530815728977
 20
26.50665130919892
 30
0.0
 10
314.4530815728977
 20
26.50665130919892
 30
0.0
 10
314.4410423849904
 20
26.48980637265182
 30
0.0
 10
314.4410423849904
 20
26.48980637265182
 30
0.0
  0
HATCH
  5
3CA0A
330
2
100
AcDbEntity
  8
0
  6
Continuous
 62
     0
100
AcDbHatch
 10
0.0
 20
0.0
 30
0.0
210
0.0
220
0.0
230
1.0
  2
SOLID
 70
     1
 71
     1
 91
        1
 92
        5
 93
        1
 72
     4
 94
        3
 73
     0
 74
     0
 95
       17
 96
       13
 40
0.0
 40
0.0
 40
0.0
 40
0.0
 40
1.0
 40
1.0
 40
1.0
 40
2.0
 40
2.0
 40
2.0
 40
3.0
 40
3.0
 40
3.0
 40
4.0
 40
4.0
 40
4.0
 40
4.0
 10
330.2532216010768
 20
26.48980637265182
 10
330.2532216010768
 20
26.48980637265182
 10
327.9443954584378
 20
26.48980637265182
 10
327.9443954584378
 20
26.48980637265182
 10
327.9443954584378
 20
26.48980637265182
 10
329.9462723688174
 20
33.96699071378773
 10
329.9462723688174
 20
33.96699071378773
 10
329.9462723688174
 20
33.96699071378773
 10
332.2549325504086
 20
33.96699071378773
 10
332.2549325504086
 20
33.96699071378773
 10
332.2549325504086
 20
33.96699071378773
 10
330.2532216010768
 20
26.48980637265182
 10
330.2532216010768
 20
26.48980637265182
 97
        0
 97
        1
330
3CA0B
 75
     1
 76
     1
 47
0.0269459378258844
 98
        1
 10
329.2932681699998
 20
28.5323253319485
450
        0
451
        0
460
0.0
461
0.0
452
        0
462
1.0
453
        2
463
0.0
 63
     5
421
      255
463
1.0
 63
     2
421
 16776960
470
LINEAR
1001
GRADIENTCOLOR1ACI
1070
     5
1001
GRADIENTCOLOR2ACI
1070
     2
1001
ACAD
1010
0.0
1020
0.0
1030
0.0
  0
SPLINE
  5
3CA0B
102
{ACAD_REACTORS
330
3CA0A
102
}
330
2
100
AcDbEntity
  8
Layer 1
100
AcDbSpline
210
0.0
220
0.0
230
1.0
 70
    11
 71
     3
 72
    17
 73
    13
 74
     0
 42
0.000000001
 43
0.0000000001
 40
0.0
 40
0.0
 40
0.0
 40
0.0
 40
1.0
 40
1.0
 40
1.0
 40
2.0
 40
2.0
 40
2.0
 40
3.0
 40
3.0
 40
3.0
 40
4.0
 40
4.0
 40
4.0
 40
4.0
 10
330.2532216010768
 20
26.48980637265182
 30
0.0
 10
330.2532216010768
 20
26.48980637265182
 30
0.0
 10
327.9443954584378
 20
26.48980637265182
 30
0.0
 10
327.9443954584378
 20
26.48980637265182
 30
0.0
 10
327.9443954584378
 20
26.48980637265182
 30
0.0
 10
329.9462723688174
 20
33.96699071378773
 30
0.0
 10
329.9462723688174
 20
33.96699071378773
 30
0.0
 10
329.9462723688174
 20
33.96699071378773
 30
0.0
 10
332.2549325504086
 20
33.96699071378773
 30
0.0
 10
332.2549325504086
 20
33.96699071378773
 30
0.0
 10
332.2549325504086
 20
33.96699071378773
 30
0.0
 10
330.2532216010768
 20
26.48980637265182
 30
0.0
 10
330.2532216010768
 20
26.48980637265182
 30
0.0
  0
HATCH
  5
3CA0C
330
2
100
AcDbEntity
  8
0
  6
Continuous
 62
     0
100
AcDbHatch
 10
0.0
 20
0.0
 30
0.0
210
0.0
220
0.0
230
1.0
  2
SOLID
 70
     1
 71
     1
 91
        1
 92
        5
 93
       14
 72
     4
 94
        3
 73
     0
 74
     0
 95
        8
 96
        4
 40
12.0
 40
12.0
 40
12.0
 40
12.0
 40
13.0
 40
13.0
 40
13.0
 40
13.0
 10
326.1932615913429
 20
29.56819798402193
 10
326.5264626532859
 20
29.66951411457098
 10
326.8570753469306
 20
29.81836583435145
 10
327.149560964683
 20
30.0418282974721
 97
        0
 72
     4
 94
        3
 73
     0
 74
     0
 95
        8
 96
        4
 40
13.0
 40
13.0
 40
13.0
 40
13.0
 40
14.0
 40
14.0
 40
14.0
 40
14.0
 10
327.149560964683
 20
30.0418282974721
 10
327.7957491647127
 20
30.53973997067661
 10
328.1347843266305
 20
31.24952807747435
 10
328.1347843266305
 20
31.9482231772776
 97
        0
 72
     4
 94
        3
 73
     0
 74
     0
 95
        8
 96
        4
 40
0.0
 40
0.0
 40
0.0
 40
0.0
 40
1.0
 40
1.0
 40
1.0
 40
1.0
 10
328.1347843266305
 20
31.9482231772776
 10
328.1347843266305
 20
33.45202407360833
 10
326.8109366548758
 20
33.98165352977461
 10
325.656608068163
 20
33.98165352977461
 97
        0
 72
     4
 94
        3
 73
     0
 74
     0
 95
        8
 96
        4
 40
1.0
 40
1.0
 40
1.0
 40
1.0
 40
2.0
 40
2.0
 40
2.0
 40
2.0
 10
325.656608068163
 20
33.98165352977461
 10
325.656608068163
 20
33.98165352977461
 10
322.3521244566835
 20
33.98165352977461
 10
322.3521244566835
 20
33.98165352977461
 97
        0
 72
     4
 94
        3
 73
     0
 74
     0
 95
        8
 96
        4
 40
2.0
 40
2.0
 40
2.0
 40
2.0
 40
3.0
 40
3.0
 40
3.0
 40
3.0
 10
322.3521244566835
 20
33.98165352977461
 10
322.3521244566835
 20
33.98165352977461
 10
320.3398104820829
 20
26.50427278280365
 10
320.3398104820829
 20
26.50427278280365
 97
        0
 72
     4
 94
        3
 73
     0
 74
     0
 95
        8
 96
        4
 40
3.0
 40
3.0
 40
3.0
 40
3.0
 40
4.0
 40
4.0
 40
4.0
 40
4.0
 10
320.3398104820829
 20
26.50427278280365
 10
320.3398104820829
 20
26.50427278280365
 10
322.7126457633978
 20
26.50427278280365
 10
322.7126457633978
 20
26.50427278280365
 97
        0
 72
     4
 94
        3
 73
     0
 74
     0
 95
        8
 96
        4
 40
4.0
 40
4.0
 40
4.0
 40
4.0
 40
5.0
 40
5.0
 40
5.0
 40
5.0
 10
322.7126457633978
 20
26.50427278280365
 10
322.7126457633978
 20
26.50427278280365
 10
324.2689946447131
 20
32.30812962642954
 10
324.2689946447131
 20
32.30812962642954
 97
        0
 72
     4
 94
        3
 73
     0
 74
     0
 95
        8
 96
        4
 40
5.0
 40
5.0
 40
5.0
 40
5.0
 40
6.0
 40
6.0
 40
6.0
 40
6.0
 10
324.2689946447131
 20
32.30812962642954
 10
324.2689946447131
 20
32.30812962642954
 10
324.9681005966271
 20
32.30812962642954
 10
324.9681005966271
 20
32.30812962642954
 97
        0
 72
     4
 94
        3
 73
     0
 74
     0
 95
        8
 96
        4
 40
6.0
 40
6.0
 40
6.0
 40
6.0
 40
7.0
 40
7.0
 40
7.0
 40
7.0
 10
324.9681005966271
 20
32.30812962642954
 10
325.3809658828747
 20
32.30812962642954
 10
325.8048830909054
 20
32.21285302191085
 10
325.8048830909054
 20
31.70471113114482
 97
        0
 72
     4
 94
        3
 73
     0
 74
     0
 95
        8
 96
        4
 40
7.0
 40
7.0
 40
7.0
 40
7.0
 40
8.0
 40
8.0
 40
8.0
 40
8.0
 10
325.8048830909054
 20
31.70471113114482
 10
325.8048830909054
 20
31.42948130205028
 10
325.5932120833675
 20
30.98432303988579
 10
324.8941061314537
 20
31.00576952007489
 97
        0
 72
     4
 94
        3
 73
     0
 74
     0
 95
        8
 96
        4
 40
8.0
 40
8.0
 40
8.0
 40
8.0
 40
9.0
 40
9.0
 40
9.0
 40
9.0
 10
324.8941061314537
 20
31.00576952007489
 10
324.8941061314537
 20
31.00576952007489
 10
324.4463184157794
 20
29.36659285320145
 10
324.4463184157794
 20
29.36659285320145
 97
        0
 72
     4
 94
        3
 73
     0
 74
     0
 95
        8
 96
        4
 40
9.0
 40
9.0
 40
9.0
 40
9.0
 40
10.0
 40
10.0
 40
10.0
 40
10.0
 10
324.4463184157794
 20
29.36659285320145
 10
324.4463184157794
 20
29.36659285320145
 10
325.3015481698368
 20
26.38910652026914
 10
325.3015481698368
 20
26.38910652026914
 97
        0
 72
     4
 94
        3
 73
     0
 74
     0
 95
        8
 96
        4
 40
10.0
 40
10.0
 40
10.0
 40
10.0
 40
11.0
 40
11.0
 40
11.0
 40
11.0
 10
325.3015481698368
 20
26.38910652026914
 10
325.3015481698368
 20
26.38910652026914
 10
327.2581096369244
 20
26.38910652026914
 10
327.2581096369244
 20
26.38910652026914
 97
        0
 72
     4
 94
        3
 73
     0
 74
     0
 95
        8
 96
        4
 40
11.0
 40
11.0
 40
11.0
 40
11.0
 40
12.0
 40
12.0
 40
12.0
 40
12.0
 10
327.2581096369244
 20
26.38910652026914
 10
327.2581096369244
 20
26.38910652026914
 10
326.1932615913429
 20
29.56819798402193
 10
326.1932615913429
 20
29.56819798402193
 97
        0
 97
       13
330
3CA17
330
3CA18
330
3CA19
330
3CA0D
330
3CA0E
330
3CA0F
330
3CA10
330
3CA11
330
3CA12
330
3CA13
330
3CA14
330
3CA15
330
3CA16
 75
     1
 76
     1
 47
0.0269459378258844
 98
        1
 10
325.6701679179102
 20
29.18154913347974
450
        0
451
        0
460
0.0
461
0.0
452
        0
462
1.0
453
        2
463
0.0
 63
     5
421
      255
463
1.0
 63
     2
421
 16776960
470
LINEAR
1001
GRADIENTCOLOR1ACI
1070
     5
1001
GRADIENTCOLOR2ACI
1070
     2
1001
ACAD
1010
0.0
1020
0.0
1030
0.0
  0
SPLINE
  5
3CA0D
102
{ACAD_REACTORS
330
3CA0C
102
}
330
2
100
AcDbEntity
  8
Layer 1
100
AcDbSpline
210
0.0
220
0.0
230
1.0
 70
     8
 71
     3
 72
     8
 73
     4
 74
     0
 42
0.000000001
 43
0.0000000001
 40
0.0
 40
0.0
 40
0.0
 40
0.0
 40
1.0
 40
1.0
 40
1.0
 40
1.0
 10
328.1347843266305
 20
31.9482231772776
 30
0.0
 10
328.1347843266305
 20
33.45202407360833
 30
0.0
 10
326.8109366548758
 20
33.98165352977461
 30
0.0
 10
325.656608068163
 20
33.98165352977461
 30
0.0
  0
SPLINE
  5
3CA0E
102
{ACAD_REACTORS
330
3CA0C
102
}
330
2
100
AcDbEntity
  8
Layer 1
100
AcDbSpline
210
0.0
220
0.0
230
1.0
 70
    24
 71
     3
 72
     8
 73
     4
 74
     0
 42
0.000000001
 43
0.0000000001
 40
1.0
 40
1.0
 40
1.0
 40
1.0
 40
2.0
 40
2.0
 40
2.0
 40
2.0
 10
325.656608068163
 20
33.98165352977461
 30
0.0
 10
325.656608068163
 20
33.98165352977461
 30
0.0
 10
322.3521244566835
 20
33.98165352977461
 30
0.0
 10
322.3521244566835
 20
33.98165352977461
 30
0.0
  0
SPLINE
  5
3CA0F
102
{ACAD_REACTORS
330
3CA0C
102
}
330
2
100
AcDbEntity
  8
Layer 1
100
AcDbSpline
210
0.0
220
0.0
230
1.0
 70
    24
 71
     3
 72
     8
 73
     4
 74
     0
 42
0.000000001
 43
0.0000000001
 40
2.0
 40
2.0
 40
2.0
 40
2.0
 40
3.0
 40
3.0
 40
3.0
 40
3.0
 10
322.3521244566835
 20
33.98165352977461
 30
0.0
 10
322.3521244566835
 20
33.98165352977461
 30
0.0
 10
320.3398104820829
 20
26.50427278280365
 30
0.0
 10
320.3398104820829
 20
26.50427278280365
 30
0.0
  0
SPLINE
  5
3CA10
102
{ACAD_REACTORS
330
3CA0C
102
}
330
2
100
AcDbEntity
  8
Layer 1
100
AcDbSpline
210
0.0
220
0.0
230
1.0
 70
    24
 71
     3
 72
     8
 73
     4
 74
     0
 42
0.000000001
 43
0.0000000001
 40
3.0
 40
3.0
 40
3.0
 40
3.0
 40
4.0
 40
4.0
 40
4.0
 40
4.0
 10
320.3398104820829
 20
26.50427278280365
 30
0.0
 10
320.3398104820829
 20
26.50427278280365
 30
0.0
 10
322.7126457633978
 20
26.50427278280365
 30
0.0
 10
322.7126457633978
 20
26.50427278280365
 30
0.0
  0
SPLINE
  5
3CA11
102
{ACAD_REACTORS
330
3CA0C
102
}
330
2
100
AcDbEntity
  8
Layer 1
100
AcDbSpline
210
0.0
220
0.0
230
1.0
 70
    24
 71
     3
 72
     8
 73
     4
 74
     0
 42
0.000000001
 43
0.0000000001
 40
4.0
 40
4.0
 40
4.0
 40
4.0
 40
5.0
 40
5.0
 40
5.0
 40
5.0
 10
322.7126457633978
 20
26.50427278280365
 30
0.0
 10
322.7126457633978
 20
26.50427278280365
 30
0.0
 10
324.2689946447131
 20
32.30812962642954
 30
0.0
 10
324.2689946447131
 20
32.30812962642954
 30
0.0
  0
SPLINE
  5
3CA12
102
{ACAD_REACTORS
330
3CA0C
102
}
330
2
100
AcDbEntity
  8
Layer 1
100
AcDbSpline
210
0.0
220
0.0
230
1.0
 70
    24
 71
     3
 72
     8
 73
     4
 74
     0
 42
0.000000001
 43
0.0000000001
 40
5.0
 40
5.0
 40
5.0
 40
5.0
 40
6.0
 40
6.0
 40
6.0
 40
6.0
 10
324.2689946447131
 20
32.30812962642954
 30
0.0
 10
324.2689946447131
 20
32.30812962642954
 30
0.0
 10
324.9681005966271
 20
32.30812962642954
 30
0.0
 10
324.9681005966271
 20
32.30812962642954
 30
0.0
  0
SPLINE
  5
3CA13
102
{ACAD_REACTORS
330
3CA0C
102
}
330
2
100
AcDbEntity
  8
Layer 1
100
AcDbSpline
210
0.0
220
0.0
230
1.0
 70
     8
 71
     3
 72
    11
 73
     7
 74
     0
 42
0.000000001
 43
0.0000000001
 40
6.0
 40
6.0
 40
6.0
 40
6.0
 40
7.0
 40
7.0
 40
7.0
 40
8.0
 40
8.0
 40
8.0
 40
8.0
 10
324.9681005966271
 20
32.30812962642954
 30
0.0
 10
325.3809658828747
 20
32.30812962642954
 30
0.0
 10
325.8048830909054
 20
32.21285302191085
 30
0.0
 10
325.8048830909054
 20
31.70471113114482
 30
0.0
 10
325.8048830909054
 20
31.42948130205028
 30
0.0
 10
325.5932120833675
 20
30.98432303988579
 30
0.0
 10
324.8941061314537
 20
31.00576952007489
 30
0.0
  0
SPLINE
  5
3CA14
102
{ACAD_REACTORS
330
3CA0C
102
}
330
2
100
AcDbEntity
  8
Layer 1
100
AcDbSpline
210
0.0
220
0.0
230
1.0
 70
    24
 71
     3
 72
     8
 73
     4
 74
     0
 42
0.000000001
 43
0.0000000001
 40
8.0
 40
8.0
 40
8.0
 40
8.0
 40
9.0
 40
9.0
 40
9.0
 40
9.0
 10
324.8941061314537
 20
31.00576952007489
 30
0.0
 10
324.8941061314537
 20
31.00576952007489
 30
0.0
 10
324.4463184157794
 20
29.36659285320145
 30
0.0
 10
324.4463184157794
 20
29.36659285320145
 30
0.0
  0
SPLINE
  5
3CA15
102
{ACAD_REACTORS
330
3CA0C
102
}
330
2
100
AcDbEntity
  8
Layer 1
100
AcDbSpline
210
0.0
220
0.0
230
1.0
 70
    24
 71
     3
 72
     8
 73
     4
 74
     0
 42
0.000000001
 43
0.0000000001
 40
9.0
 40
9.0
 40
9.0
 40
9.0
 40
10.0
 40
10.0
 40
10.0
 40
10.0
 10
324.4463184157794
 20
29.36659285320145
 30
0.0
 10
324.4463184157794
 20
29.36659285320145
 30
0.0
 10
325.3015481698368
 20
26.38910652026914
 30
0.0
 10
325.3015481698368
 20
26.38910652026914
 30
0.0
  0
SPLINE
  5
3CA16
102
{ACAD_REACTORS
330
3CA0C
102
}
330
2
100
AcDbEntity
  8
Layer 1
100
AcDbSpline
210
0.0
220
0.0
230
1.0
 70
    24
 71
     3
 72
     8
 73
     4
 74
     0
 42
0.000000001
 43
0.0000000001
 40
10.0
 40
10.0
 40
10.0
 40
10.0
 40
11.0
 40
11.0
 40
11.0
 40
11.0
 10
325.3015481698368
 20
26.38910652026914
 30
0.0
 10
325.3015481698368
 20
26.38910652026914
 30
0.0
 10
327.2581096369244
 20
26.38910652026914
 30
0.0
 10
327.2581096369244
 20
26.38910652026914
 30
0.0
  0
SPLINE
  5
3CA17
102
{ACAD_REACTORS
330
3CA0C
102
}
330
2
100
AcDbEntity
  8
Layer 1
100
AcDbSpline
210
0.0
220
0.0
230
1.0
 70
    24
 71
     3
 72
     8
 73
     4
 74
     0
 42
0.000000001
 43
0.0000000001
 40
11.0
 40
11.0
 40
11.0
 40
11.0
 40
12.0
 40
12.0
 40
12.0
 40
12.0
 10
327.2581096369244
 20
26.38910652026914
 30
0.0
 10
327.2581096369244
 20
26.38910652026914
 30
0.0
 10
326.1932615913429
 20
29.56819798402193
 30
0.0
 10
326.1932615913429
 20
29.56819798402193
 30
0.0
  0
SPLINE
  5
3CA18
102
{ACAD_REACTORS
330
3CA0C
102
}
330
2
100
AcDbEntity
  8
Layer 1
100
AcDbSpline
210
0.0
220
0.0
230
1.0
 70
     8
 71
     3
 72
     8
 73
     4
 74
     0
 42
0.000000001
 43
0.0000000001
 40
12.0
 40
12.0
 40
12.0
 40
12.0
 40
13.0
 40
13.0
 40
13.0
 40
13.0
 10
326.1932615913429
 20
29.56819798402193
 30
0.0
 10
326.5264626532859
 20
29.66951411457098
 30
0.0
 10
326.8570753469306
 20
29.81836583435145
 30
0.0
 10
327.149560964683
 20
30.0418282974721
 30
0.0
  0
SPLINE
  5
3CA19
102
{ACAD_REACTORS
330
3CA0C
102
}
330
2
100
AcDbEntity
  8
Layer 1
100
AcDbSpline
210
0.0
220
0.0
230
1.0
 70
     8
 71
     3
 72
     8
 73
     4
 74
     0
 42
0.000000001
 43
0.0000000001
 40
13.0
 40
13.0
 40
13.0
 40
13.0
 40
14.0
 40
14.0
 40
14.0
 40
14.0
 10
327.149560964683
 20
30.0418282974721
 30
0.0
 10
327.7957491647127
 20
30.53973997067661
 30
0.0
 10
328.1347843266305
 20
31.24952807747435
 30
0.0
 10
328.1347843266305
 20
31.9482231772776
 30
0.0
  0
LWPOLYLINE
  5
3CA1A
102
{ACAD_REACTORS
330
3CA1B
102
}
330
2
100
AcDbEntity
  8
Layer 1
 62
   103
100
AcDbPolyline
 90
        8
 70
     1
 43
0.0
 10
358.6979085159322
 20
36.40342129749809
 10
323.1678288170682
 20
36.40481819467523
 10
322.6378295940024
 20
34.66153160289856
 10
334.9507386761052
 20
34.66091994663474
 10
332.5943374792266
 20
26.48980637265182
 10
334.9034085129292
 20
26.48980637265182
 10
337.2593577724857
 20
34.66091994663474
 10
358.1652821646779
 20
34.6598881944549
  0
HATCH
  5
3CA1B
330
2
100
AcDbEntity
  8
0
  6
Continuous
 62
    93
100
AcDbHatch
 10
0.0
 20
0.0
 30
0.0
210
0.0
220
0.0
230
1.0
  2
SOLID
 70
     1
 71
     1
 91
        1
 92
        7
 72
     0
 73
     1
 93
        8
 10
323.1678288170682
 20
36.40481819467523
 10
322.6378295940024
 20
34.66153160289856
 10
334.9507386761052
 20
34.66091994663474
 10
332.5943374792266
 20
26.48980637265182
 10
334.9034085129292
 20
26.48980637265182
 10
337.2593577724857
 20
34.66091994663474
 10
358.1652821646779
 20
34.6598881944549
 10
358.6979085159322
 20
36.40342129749809
 97
        1
330
3CA1A
 75
     1
 76
     1
 47
0.0428322549537331
 98
        1
 10
338.8026638842055
 20
35.54342473897989
450
        0
451
        0
460
0.0
461
0.0
452
        0
462
1.0
453
        2
463
0.0
 63
     5
421
      255
463
1.0
 63
     2
421
 16776960
470
LINEAR
1001
GRADIENTCOLOR1ACI
1070
     5
1001
GRADIENTCOLOR2ACI
1070
     2
1001
ACAD
1010
0.0
1020
0.0
1030
0.0
  0
HATCH
  5
3CA1C
330
2
100
AcDbEntity
  8
0
  6
Continuous
 62
     0
100
AcDbHatch
 10
0.0
 20
0.0
 30
0.0
210
0.0
220
0.0
230
1.0
  2
SOLID
 70
     1
 71
     1
 91
        2
 92
        5
 93
        4
 72
     4
 94
        3
 73
     0
 74
     0
 95
        8
 96
        4
 40
0.0
 40
0.0
 40
0.0
 40
0.0
 40
1.0
 40
1.0
 40
1.0
 40
1.0
 10
337.402416477502
 20
29.5216484398565
 10
337.402416477502
 20
27.58394662920016
 10
338.7294687957218
 20
26.09879841870449
 10
341.0252693062426
 20
26.09879841870449
 97
        0
 72
     4
 94
        3
 73
     0
 74
     0
 95
        8
 96
        4
 40
3.0
 40
3.0
 40
3.0
 40
3.0
 40
4.0
 40
4.0
 40
4.0
 40
4.0
 10
341.0252693062426
 20
26.09879841870449
 10
344.0691082550857
 20
26.09879841870449
 10
345.6383168074722
 20
28.42631671218665
 10
345.6383168074722
 20
30.5327143995802
 97
        0
 72
     4
 94
        3
 73
     0
 74
     0
 95
        8
 96
        4
 40
2.0
 40
2.0
 40
2.0
 40
2.0
 40
3.0
 40
3.0
 40
3.0
 40
3.0
 10
345.6383168074722
 20
30.5327143995802
 10
345.6383168074722
 20
32.41807821655106
 10
344.3114699153077
 20
33.97680547486594
 10
341.9207625671686
 20
33.97680547486594
 97
        0
 72
     4
 94
        3
 73
     0
 74
     0
 95
        8
 96
        4
 40
1.0
 40
1.0
 40
1.0
 40
1.0
 40
2.0
 40
2.0
 40
2.0
 40
2.0
 10
341.9207625671686
 20
33.97680547486594
 10
338.9822250143503
 20
33.97680547486594
 10
337.402416477502
 20
31.63848177086711
 10
337.402416477502
 20
29.5216484398565
 97
        0
 97
        1
330
3CA1D
 92
       20
 93
        4
 72
     4
 94
        3
 73
     0
 74
     0
 95
        8
 96
        4
 40
2.0
 40
2.0
 40
2.0
 40
2.0
 40
3.0
 40
3.0
 40
3.0
 40
3.0
 10
341.1624528260732
 20
27.88929191802394
 10
340.3831074568995
 20
27.88929191802394
 10
339.708858057695
 20
28.40544542495278
 10
339.708858057695
 20
29.50077715262263
 97
        0
 72
     4
 94
        3
 73
     0
 74
     0
 95
        8
 96
        4
 40
1.0
 40
1.0
 40
1.0
 40
1.0
 40
2.0
 40
2.0
 40
2.0
 40
2.0
 10
339.708858057695
 20
29.50077715262263
 10
339.708858057695
 20
30.63826682715357
 10
340.4990518016315
 20
32.27061882870394
 10
341.9418392804581
 20
32.27061882870394
 97
        0
 72
     4
 94
        3
 73
     0
 74
     0
 95
        8
 96
        4
 40
0.0
 40
0.0
 40
0.0
 40
0.0
 40
1.0
 40
1.0
 40
1.0
 40
1.0
 10
341.9418392804581
 20
32.27061882870394
 10
342.7001490215535
 20
32.27061882870394
 10
343.3531573666243
 20
31.75467074783073
 10
343.3531573666243
 20
30.66973357856663
 97
        0
 72
     4
 94
        3
 73
     0
 74
     0
 95
        8
 96
        4
 40
3.0
 40
3.0
 40
3.0
 40
3.0
 40
4.0
 40
4.0
 40
4.0
 40
4.0
 10
343.3531573666243
 20
30.66973357856663
 10
343.3531573666243
 20
29.58504292056904
 10
342.7214311608985
 20
27.88929191802394
 10
341.1624528260732
 20
27.88929191802394
 97
        0
 97
        1
330
3CA1E
 75
     1
 76
     1
 47
0.0269459378258844
 98
        2
 10
338.9881860032631
 20
28.38250561994956
 10
338.9881860032631
 20
28.38250561994956
450
        0
451
        0
460
0.0
461
0.0
452
        0
462
1.0
453
        2
463
0.0
 63
     5
421
      255
463
1.0
 63
     2
421
 16776960
470
LINEAR
1001
GRADIENTCOLOR1ACI
1070
     5
1001
GRADIENTCOLOR2ACI
1070
     2
1001
ACAD
1010
0.0
1020
0.0
1030
0.0
  0
SPLINE
  5
3CA1D
102
{ACAD_REACTORS
330
3CA1C
102
}
330
2
100
AcDbEntity
  8
Layer 1
100
AcDbSpline
210
0.0
220
0.0
230
1.0
 70
     9
 71
     3
 72
    17
 73
    13
 74
     0
 42
0.000000001
 43
0.0000000001
 40
0.0
 40
0.0
 40
0.0
 40
0.0
 40
1.0
 40
1.0
 40
1.0
 40
2.0
 40
2.0
 40
2.0
 40
3.0
 40
3.0
 40
3.0
 40
4.0
 40
4.0
 40
4.0
 40
4.0
 10
341.0252693062426
 20
26.09879841870449
 30
0.0
 10
338.7294687957218
 20
26.09879841870449
 30
0.0
 10
337.402416477502
 20
27.58394662920016
 30
0.0
 10
337.402416477502
 20
29.5216484398565
 30
0.0
 10
337.402416477502
 20
31.63848177086711
 30
0.0
 10
338.9822250143503
 20
33.97680547486594
 30
0.0
 10
341.9207625671686
 20
33.97680547486594
 30
0.0
 10
344.3114699153077
 20
33.97680547486594
 30
0.0
 10
345.6383168074722
 20
32.41807821655106
 30
0.0
 10
345.6383168074722
 20
30.5327143995802
 30
0.0
 10
345.6383168074722
 20
28.42631671218665
 30
0.0
 10
344.0691082550857
 20
26.09879841870449
 30
0.0
 10
341.0252693062426
 20
26.09879841870449
 30
0.0
  0
SPLINE
  5
3CA1E
102
{ACAD_REACTORS
330
3CA1C
102
}
330
2
100
AcDbEntity
  8
Layer 1
100
AcDbSpline
210
0.0
220
0.0
230
1.0
 70
     9
 71
     3
 72
    17
 73
    13
 74
     0
 42
0.000000001
 43
0.0000000001
 40
0.0
 40
0.0
 40
0.0
 40
0.0
 40
1.0
 40
1.0
 40
1.0
 40
2.0
 40
2.0
 40
2.0
 40
3.0
 40
3.0
 40
3.0
 40
4.0
 40
4.0
 40
4.0
 40
4.0
 10
343.3531573666243
 20
30.66973357856663
 30
0.0
 10
343.3531573666243
 20
31.75467074783073
 30
0.0
 10
342.7001490215535
 20
32.27061882870394
 30
0.0
 10
341.9418392804581
 20
32.27061882870394
 30
0.0
 10
340.4990518016315
 20
32.27061882870394
 30
0.0
 10
339.708858057695
 20
30.63826682715357
 30
0.0
 10
339.708858057695
 20
29.50077715262263
 30
0.0
 10
339.708858057695
 20
28.40544542495278
 30
0.0
 10
340.3831074568995
 20
27.88929191802394
 30
0.0
 10
341.1624528260732
 20
27.88929191802394
 30
0.0
 10
342.7214311608985
 20
27.88929191802394
 30
0.0
 10
343.3531573666243
 20
29.58504292056904
 30
0.0
 10
343.3531573666243
 20
30.66973357856663
 30
0.0
  0
HATCH
  5
3CA1F
330
2
100
AcDbEntity
  8
0
  6
Continuous
 62
     0
100
AcDbHatch
 10
0.0
 20
0.0
 30
0.0
210
0.0
220
0.0
230
1.0
  2
SOLID
 70
     1
 71
     1
 91
        2
 92
        5
 93
        4
 72
     4
 94
        3
 73
     0
 74
     0
 95
        8
 96
        4
 40
0.0
 40
0.0
 40
0.0
 40
0.0
 40
1.0
 40
1.0
 40
1.0
 40
1.0
 10
345.8955102288976
 20
29.5216484398565
 10
345.8955102288976
 20
27.58394662920016
 10
347.2227268879621
 20
26.09879841870449
 10
349.518321972427
 20
26.09879841870449
 97
        0
 72
     4
 94
        3
 73
     0
 74
     0
 95
        8
 96
        4
 40
3.0
 40
3.0
 40
3.0
 40
3.0
 40
4.0
 40
4.0
 40
4.0
 40
4.0
 10
349.518321972427
 20
26.09879841870449
 10
352.5622020064815
 20
26.09879841870449
 10
354.131410558868
 20
28.42631671218665
 10
354.131410558868
 20
30.5327143995802
 97
        0
 72
     4
 94
        3
 73
     0
 74
     0
 95
        8
 96
        4
 40
2.0
 40
2.0
 40
2.0
 40
2.0
 40
3.0
 40
3.0
 40
3.0
 40
3.0
 10
354.131410558868
 20
30.5327143995802
 10
354.131410558868
 20
32.41807821655106
 10
352.8043582406481
 20
33.97680547486594
 10
350.4138563185646
 20
33.97680547486594
 97
        0
 72
     4
 94
        3
 73
     0
 74
     0
 95
        8
 96
        4
 40
1.0
 40
1.0
 40
1.0
 40
1.0
 40
2.0
 40
2.0
 40
2.0
 40
2.0
 10
350.4138563185646
 20
33.97680547486594
 10
347.4751133396905
 20
33.97680547486594
 10
345.8955102288976
 20
31.63848177086711
 10
345.8955102288976
 20
29.5216484398565
 97
        0
 97
        1
330
3CA21
 92
       20
 93
        4
 72
     4
 94
        3
 73
     0
 74
     0
 95
        8
 96
        4
 40
0.0
 40
0.0
 40
0.0
 40
0.0
 40
1.0
 40
1.0
 40
1.0
 40
1.0
 10
351.8460456919648
 20
30.66973357856663
 10
351.8460456919648
 20
31.75467074783073
 10
351.1930373468938
 20
32.27061882870394
 10
350.4343167536874
 20
32.27061882870394
 97
        0
 72
     4
 94
        3
 73
     0
 74
     0
 95
        8
 96
        4
 40
1.0
 40
1.0
 40
1.0
 40
1.0
 40
2.0
 40
2.0
 40
2.0
 40
2.0
 10
350.4343167536874
 20
32.27061882870394
 10
348.9919382479369
 20
32.27061882870394
 10
348.2021182235659
 20
30.63826682715357
 10
348.2021182235659
 20
29.50077715262263
 97
        0
 72
     4
 94
        3
 73
     0
 74
     0
 95
        8
 96
        4
 40
2.0
 40
2.0
 40
2.0
 40
2.0
 40
3.0
 40
3.0
 40
3.0
 40
3.0
 10
348.2021182235659
 20
29.50077715262263
 10
348.2021182235659
 20
28.40544542495278
 10
348.8757903561844
 20
27.88929191802394
 10
349.6551357253582
 20
27.88929191802394
 97
        0
 72
     4
 94
        3
 73
     0
 74
     0
 95
        8
 96
        4
 40
3.0
 40
3.0
 40
3.0
 40
3.0
 40
4.0
 40
4.0
 40
4.0
 40
4.0
 10
349.6551357253582
 20
27.88929191802394
 10
351.2139086341278
 20
27.88929191802394
 10
351.8460456919648
 20
29.58504292056904
 10
351.8460456919648
 20
30.66973357856663
 97
        0
 97
        1
330
3CA20
 75
     1
 76
     1
 47
0.0269459378258844
 98
        2
 10
348.0584310911275
 20
28.98178879611857
 10
348.0584310911275
 20
28.98178879611857
450
        0
451
        0
460
0.0
461
0.0
452
        0
462
1.0
453
        2
463
0.0
 63
     5
421
      255
463
1.0
 63
     2
421
 16776960
470
LINEAR
1001
GRADIENTCOLOR1ACI
1070
     5
1001
GRADIENTCOLOR2ACI
1070
     2
1001
ACAD
1010
0.0
1020
0.0
1030
0.0
  0
SPLINE
  5
3CA20
102
{ACAD_REACTORS
330
3CA1F
102
}
330
2
100
AcDbEntity
  8
Layer 1
100
AcDbSpline
210
0.0
220
0.0
230
1.0
 70
     9
 71
     3
 72
    17
 73
    13
 74
     0
 42
0.000000001
 43
0.0000000001
 40
0.0
 40
0.0
 40
0.0
 40
0.0
 40
1.0
 40
1.0
 40
1.0
 40
2.0
 40
2.0
 40
2.0
 40
3.0
 40
3.0
 40
3.0
 40
4.0
 40
4.0
 40
4.0
 40
4.0
 10
351.8460456919648
 20
30.66973357856663
 30
0.0
 10
351.8460456919648
 20
31.75467074783073
 30
0.0
 10
351.1930373468938
 20
32.27061882870394
 30
0.0
 10
350.4343167536874
 20
32.27061882870394
 30
0.0
 10
348.9919382479369
 20
32.27061882870394
 30
0.0
 10
348.2021182235659
 20
30.63826682715357
 30
0.0
 10
348.2021182235659
 20
29.50077715262263
 30
0.0
 10
348.2021182235659
 20
28.40544542495278
 30
0.0
 10
348.8757903561844
 20
27.88929191802394
 30
0.0
 10
349.6551357253582
 20
27.88929191802394
 30
0.0
 10
351.2139086341278
 20
27.88929191802394
 30
0.0
 10
351.8460456919648
 20
29.58504292056904
 30
0.0
 10
351.8460456919648
 20
30.66973357856663
 30
0.0
  0
SPLINE
  5
3CA21
102
{ACAD_REACTORS
330
3CA1F
102
}
330
2
100
AcDbEntity
  8
Layer 1
100
AcDbSpline
210
0.0
220
0.0
230
1.0
 70
     9
 71
     3
 72
    17
 73
    13
 74
     0
 42
0.000000001
 43
0.0000000001
 40
0.0
 40
0.0
 40
0.0
 40
0.0
 40
1.0
 40
1.0
 40
1.0
 40
2.0
 40
2.0
 40
2.0
 40
3.0
 40
3.0
 40
3.0
 40
4.0
 40
4.0
 40
4.0
 40
4.0
 10
349.518321972427
 20
26.09879841870449
 30
0.0
 10
347.2227268879621
 20
26.09879841870449
 30
0.0
 10
345.8955102288976
 20
27.58394662920016
 30
0.0
 10
345.8955102288976
 20
29.5216484398565
 30
0.0
 10
345.8955102288976
 20
31.63848177086711
 30
0.0
 10
347.4751133396905
 20
33.97680547486594
 30
0.0
 10
350.4138563185646
 20
33.97680547486594
 30
0.0
 10
352.8043582406481
 20
33.97680547486594
 30
0.0
 10
354.131410558868
 20
32.41807821655106
 30
0.0
 10
354.131410558868
 20
30.5327143995802
 30
0.0
 10
354.131410558868
 20
28.42631671218665
 30
0.0
 10
352.5622020064815
 20
26.09879841870449
 30
0.0
 10
349.518321972427
 20
26.09879841870449
 30
0.0
  0
HATCH
  5
3CA22
330
2
100
AcDbEntity
  8
0
  6
Continuous
 62
     0
100
AcDbHatch
 10
0.0
 20
0.0
 30
0.0
210
0.0
220
0.0
230
1.0
  2
SOLID
 70
     1
 71
     1
 91
        1
 92
        5
 93
        6
 72
     4
 94
        3
 73
     0
 74
     0
 95
        8
 96
        4
 40
4.0
 40
4.0
 40
4.0
 40
4.0
 40
5.0
 40
5.0
 40
5.0
 40
5.0
 10
356.4101219025567
 20
28.04714129903335
 10
356.4101219025567
 20
28.04714129903335
 10
357.9373801734379
 20
33.75576703919961
 10
357.9373801734379
 20
33.75576703919961
 97
        0
 72
     4
 94
        3
 73
     0
 74
     0
 95
        8
 96
        4
 40
3.0
 40
3.0
 40
3.0
 40
3.0
 40
4.0
 40
4.0
 40
4.0
 40
4.0
 10
357.9373801734379
 20
33.75576703919961
 10
357.9373801734379
 20
33.75576703919961
 10
355.5988510433837
 20
33.75576703919961
 10
355.5988510433837
 20
33.75576703919961
 97
        0
 72
     4
 94
        3
 73
     0
 74
     0
 95
        8
 96
        4
 40
2.0
 40
2.0
 40
2.0
 40
2.0
 40
3.0
 40
3.0
 40
3.0
 40
3.0
 10
355.5988510433837
 20
33.75576703919961
 10
355.5988510433837
 20
33.75576703919961
 10
353.6086012477428
 20
26.32008336563732
 10
353.6086012477428
 20
26.32008336563732
 97
        0
 72
     4
 94
        3
 73
     0
 74
     0
 95
        8
 96
        4
 40
1.0
 40
1.0
 40
1.0
 40
1.0
 40
2.0
 40
2.0
 40
2.0
 40
2.0
 10
353.6086012477428
 20
26.32008336563732
 10
353.6086012477428
 20
26.32008336563732
 10
358.4220647404797
 20
26.32008336563732
 10
358.4220647404797
 20
26.32008336563732
 97
        0
 72
     4
 94
        3
 73
     0
 74
     0
 95
        8
 96
        4
 40
0.0
 40
0.0
 40
0.0
 40
0.0
 40
1.0
 40
1.0
 40
1.0
 40
1.0
 10
358.4220647404797
 20
26.32008336563732
 10
358.4220647404797
 20
26.32008336563732
 10
358.9933933540947
 20
28.04714129903335
 10
358.9933933540947
 20
28.04714129903335
 97
        0
 72
     4
 94
        3
 73
     0
 74
     0
 95
        8
 96
        4
 40
5.0
 40
5.0
 40
5.0
 40
5.0
 40
6.0
 40
6.0
 40
6.0
 40
6.0
 10
358.9933933540947
 20
28.04714129903335
 10
358.9933933540947
 20
28.04714129903335
 10
356.4101219025567
 20
28.04714129903335
 10
356.4101219025567
 20
28.04714129903335
 97
        0
 97
        6
330
3CA27
330
3CA26
330
3CA25
330
3CA24
330
3CA23
330
3CA28
 75
     1
 76
     1
 47
0.0168242271866721
 98
        1
 10
355.6940007594247
 20
28.5321868304093
450
        0
451
        0
460
0.0
461
0.0
452
        0
462
1.0
453
        2
463
0.0
 63
     5
421
      255
463
1.0
 63
     2
421
 16776960
470
LINEAR
1001
GRADIENTCOLOR1ACI
1070
     5
1001
GRADIENTCOLOR2ACI
1070
     2
1001
ACAD
1010
0.0
1020
0.0
1030
0.0
  0
SPLINE
  5
3CA23
102
{ACAD_REACTORS
330
3CA22
102
}
330
2
100
AcDbEntity
  8
Layer 1
100
AcDbSpline
210
0.0
220
0.0
230
1.0
 70
    24
 71
     3
 72
     8
 73
     4
 74
     0
 42
0.000000001
 43
0.0000000001
 40
0.0
 40
0.0
 40
0.0
 40
0.0
 40
1.0
 40
1.0
 40
1.0
 40
1.0
 10
358.9933933540947
 20
28.04714129903335
 30
0.0
 10
358.9933933540947
 20
28.04714129903335
 30
0.0
 10
358.4220647404797
 20
26.32008336563732
 30
0.0
 10
358.4220647404797
 20
26.32008336563732
 30
0.0
  0
SPLINE
  5
3CA24
102
{ACAD_REACTORS
330
3CA22
102
}
330
2
100
AcDbEntity
  8
Layer 1
100
AcDbSpline
210
0.0
220
0.0
230
1.0
 70
    24
 71
     3
 72
     8
 73
     4
 74
     0
 42
0.000000001
 43
0.0000000001
 40
1.0
 40
1.0
 40
1.0
 40
1.0
 40
2.0
 40
2.0
 40
2.0
 40
2.0
 10
358.4220647404797
 20
26.32008336563732
 30
0.0
 10
358.4220647404797
 20
26.32008336563732
 30
0.0
 10
353.6086012477428
 20
26.32008336563732
 30
0.0
 10
353.6086012477428
 20
26.32008336563732
 30
0.0
  0
SPLINE
  5
3CA25
102
{ACAD_REACTORS
330
3CA22
102
}
330
2
100
AcDbEntity
  8
Layer 1
100
AcDbSpline
210
0.0
220
0.0
230
1.0
 70
    24
 71
     3
 72
     8
 73
     4
 74
     0
 42
0.000000001
 43
0.0000000001
 40
2.0
 40
2.0
 40
2.0
 40
2.0
 40
3.0
 40
3.0
 40
3.0
 40
3.0
 10
353.6086012477428
 20
26.32008336563732
 30
0.0
 10
353.6086012477428
 20
26.32008336563732
 30
0.0
 10
355.5988510433837
 20
33.75576703919961
 30
0.0
 10
355.5988510433837
 20
33.75576703919961
 30
0.0
  0
SPLINE
  5
3CA26
102
{ACAD_REACTORS
330
3CA22
102
}
330
2
100
AcDbEntity
  8
Layer 1
100
AcDbSpline
210
0.0
220
0.0
230
1.0
 70
    24
 71
     3
 72
     8
 73
     4
 74
     0
 42
0.000000001
 43
0.0000000001
 40
3.0
 40
3.0
 40
3.0
 40
3.0
 40
4.0
 40
4.0
 40
4.0
 40
4.0
 10
355.5988510433837
 20
33.75576703919961
 30
0.0
 10
355.5988510433837
 20
33.75576703919961
 30
0.0
 10
357.9373801734379
 20
33.75576703919961
 30
0.0
 10
357.9373801734379
 20
33.75576703919961
 30
0.0
  0
SPLINE
  5
3CA27
102
{ACAD_REACTORS
330
3CA22
102
}
330
2
100
AcDbEntity
  8
Layer 1
100
AcDbSpline
210
0.0
220
0.0
230
1.0
 70
    24
 71
     3
 72
     8
 73
     4
 74
     0
 42
0.000000001
 43
0.0000000001
 40
4.0
 40
4.0
 40
4.0
 40
4.0
 40
5.0
 40
5.0
 40
5.0
 40
5.0
 10
357.9373801734379
 20
33.75576703919961
 30
0.0
 10
357.9373801734379
 20
33.75576703919961
 30
0.0
 10
356.4101219025567
 20
28.04714129903335
 30
0.0
 10
356.4101219025567
 20
28.04714129903335
 30
0.0
  0
SPLINE
  5
3CA28
102
{ACAD_REACTORS
330
3CA22
102
}
330
2
100
AcDbEntity
  8
Layer 1
100
AcDbSpline
210
0.0
220
0.0
230
1.0
 70
    24
 71
     3
 72
     8
 73
     4
 74
     0
 42
0.000000001
 43
0.0000000001
 40
5.0
 40
5.0
 40
5.0
 40
5.0
 40
6.0
 40
6.0
 40
6.0
 40
6.0
 10
356.4101219025567
 20
28.04714129903335
 30
0.0
 10
356.4101219025567
 20
28.04714129903335
 30
0.0
 10
358.9933933540947
 20
28.04714129903335
 30
0.0
 10
358.9933933540947
 20
28.04714129903335
 30
0.0
  0
TEXT
  5
3CA29
330
2
100
AcDbEntity
  8
0
 62
     2
100
AcDbText
 10
309.3953763362272
 20
17.57791245939861
 30
0.0
 40
3.632568939999999
  1
www.maritool.com
  7
굴림
100
AcDbText
  0
TEXT
  5
3CA2A
330
2
100
AcDbEntity
  8
0
 62
     2
100
AcDbText
 10
284.559894311587
 20
5.41015217585708
 30
0.0
 40
2.906055151999998
  1
ITEM#
  7
굴림
100
AcDbText
  0
TEXT
  5
3CA2B
330
2
100
AcDbEntity
  8
0
 62
     2
100
AcDbText
 10
305.8172495929758
 20
4.719681577567751
 30
0.0
 40
4.359082727999998
  1
CAT40-SSA1.0-12.0 DT
  7
굴림
100
AcDbText
  0
DIMENSION
  5
426AF
330
2
100
AcDbEntity
  8
0
  6
Continuous
 62
     7
100
AcDbDimension
280
     0
  2
*D0
 10
310.4813700981882
 20
133.7252452398826
 30
0.0
 11
308.3563700981882
 21
146.4252452398829
 31
0.0
 70
    32
  1
%%c1.00
 71
     5
 42
25.40000000000055
 73
     0
 74
     0
 75
     0
  3
Standard$0
100
AcDbAlignedDimension
 13
292.8752959841969
 23
159.1252452398831
 33
0.0
 14
292.8752959841969
 24
133.7252452398826
 34
0.0
 50
90.0
100
AcDbRotatedDimension
1001
ACAD
1000
DSTYLE
1002
{
1070
     3
1000
%%c<>
1070
    42
1040
0.625
1070
    43
1040
3.75
1070
    44
1040
1.25
1070
    48
1040
0.000000001
1070
    74
1070
     0
1070
    76
1070
     1
1070
    77
1070
     1
1070
    90
1070
     1
1070
   140
1040
3.0
1070
   141
1040
-0.5
1070
   143
1040
0.03937007874016
1070
   146
1040
0.7
1070
   147
1040
0.625
1070
   171
1070
     3
1070
   172
1070
     1
1070
   175
1070
     0
1070
   274
1070
     3
1070
   282
1070
     1
1070
   283
1070
     0
1070
   284
1070
     8
1070
   340
1005
25
1070
   371
1070
    -1
1070
   372
1070
    -1
1002
}
  0
DIMENSION
  5
426B0
330
2
100
AcDbEntity
  8
0
  6
Continuous
 62
     7
100
AcDbDimension
280
     0
  2
*D1
 10
318.4813700981877
 20
127.3752452398822
 30
0.0
 11
316.3563700981878
 21
146.4252452398824
 31
0.0
 70
    32
  1
%%c1.50
 71
     5
 42
38.10000000000035
 73
     0
 74
     0
 75
     0
  3
Standard$0
100
AcDbAlignedDimension
 13
293.15670614571
 23
165.4752452398826
 33
0.0
 14
293.15670614571
 24
127.3752452398822
 34
0.0
 50
90.0
100
AcDbRotatedDimension
1001
ACAD
1000
DSTYLE
1002
{
1070
    42
1040
0.625
1070
    43
1040
3.75
1070
    44
1040
1.25
1070
    48
1040
0.000000001
1070
    74
1070
     0
1070
    76
1070
     1
1070
    77
1070
     1
1070
    90
1070
     1
1070
   140
1040
3.0
1070
   141
1040
-0.5
1070
   143
1040
0.03937007874016
1070
   146
1040
0.7
1070
   147
1040
0.625
1070
   171
1070
     3
1070
   172
1070
     1
1070
   175
1070
     0
1070
   274
1070
     3
1070
   282
1070
     1
1070
   283
1070
     0
1070
   284
1070
     8
1070
   340
1005
25
1070
   371
1070
    -1
1070
   372
1070
    -1
1002
}
  0
DIMENSION
  5
426B2
330
2
100
AcDbEntity
  8
0
  6
Continuous
 62
     7
100
AcDbDimension
280
     0
  2
*D2
 10
293.65670614571
 20
183.7298359678935
 30
0.0
 11
284.40670614571
 21
185.8548359678935
 31
0.0
 70
    32
  1
.71
 71
     5
 42
18.5
 73
     0
 74
     0
 75
     0
  3
Standard$0
100
AcDbAlignedDimension
 13
275.15670614571
 23
159.3752452398831
 33
0.0
 14
293.65670614571
 24
164.9752452398826
 34
0.0
100
AcDbRotatedDimension
1001
ACAD
1000
DSTYLE
1002
{
1070
    42
1040
0.625
1070
    43
1040
3.75
1070
    44
1040
1.25
1070
    48
1040
0.000000001
1070
    74
1070
     0
1070
    77
1070
     1
1070
    90
1070
     1
1070
   140
1040
3.0
1070
   141
1040
-0.5
1070
   143
1040
0.03937007874016
1070
   146
1040
0.7
1070
   147
1040
0.625
1070
   171
1070
     3
1070
   172
1070
     1
1070
   175
1070
     0
1070
   274
1070
     3
1070
   283
1070
     0
1070
   284
1070
     8
1070
   340
1005
25
1070
   371
1070
    -1
1070
   372
1070
    -1
1002
}
  0
LINE
  5
429E1
330
2
100
AcDbEntity
  8
0
  6
Continuous
 62
     3
100
AcDbLine
 10
88.85670614571052
 20
124.0434558419382
 30
0.0
 11
88.85670614571052
 21
83.66564444852031
 31
0.0
  0
MTEXT
  5
429E2
330
2
100
AcDbEntity
  8
0
  6
Continuous
 62
     2
100
AcDbMText
 10
88.85724031485812
 20
81.21682934472426
 30
0.0
 40
3.0
 41
0.0
 46
0.0
 71
     5
 72
     1
  1
0.00
 73
     1
 44
1.0
  0
DIMENSION
  5
429E5
330
2
100
AcDbEntity
  8
0
  6
Continuous
 62
     7
100
AcDbDimension
280
     0
  2
*D3
 10
76.08090337332547
 20
168.6502452398805
 30
0.0
 11
76.08090337332544
 21
187.1055483829744
 31
0.0
 70
   160
  1
%%C1.7500
 71
     5
 42
44.44999999999983
 73
     0
 74
     0
 75
     0
  3
Standard$0
100
AcDbAlignedDimension
 13
88.85670614571052
 23
124.2002452398807
 33
0.0
 14
88.85670614571052
 24
168.6502452398805
 34
0.0
 50
90.0
100
AcDbRotatedDimension
1001
ACAD
1000
DSTYLE
1002
{
1070
    42
1040
0.625
1070
    43
1040
3.75
1070
    44
1040
1.25
1070
    48
1040
0.000000001
1070
    74
1070
     0
1070
    77
1070
     1
1070
    90
1070
     1
1070
   140
1040
3.0
1070
   141
1040
-0.5
1070
   143
1040
0.03937007874016
1070
   146
1040
0.7
1070
   147
1040
0.625
1070
   171
1070
     3
1070
   172
1070
     1
1070
   175
1070
     0
1070
   179
1070
     0
1070
   274
1070
     3
1070
   283
1070
     0
1070
   284
1070
     8
1070
   340
1005
25
1070
   371
1070
    -1
1070
   372
1070
    -1
1002
}
  0
DIMENSION
  5
429E6
330
2
100
AcDbEntity
  8
0
  6
Continuous
 62
     7
100
AcDbDimension
280
     0
  2
*D4
 10
68.08090337332524
 20
178.1752452398793
 30
0.0
 11
68.08090337332521
 21
186.8514263422431
 31
0.0
 70
   160
  1
%%C2.500
 71
     5
 42
63.4999999999987
 73
     0
 74
     0
 75
     0
  3
Standard$0
100
AcDbAlignedDimension
 13
90.65670614571088
 23
114.6752452398806
 33
0.0
 14
90.35670614571024
 24
178.1752452398793
 34
0.0
 50
90.0
100
AcDbRotatedDimension
1001
ACAD
1000
DSTYLE
1002
{
1070
    42
1040
0.625
1070
    43
1040
3.75
1070
    44
1040
1.25
1070
    48
1040
0.000000001
1070
    74
1070
     0
1070
    77
1070
     1
1070
    90
1070
     1
1070
   140
1040
3.0
1070
   141
1040
-0.5
1070
   143
1040
0.03937007874016
1070
   146
1040
0.7
1070
   147
1040
0.625
1070
   171
1070
     3
1070
   172
1070
     1
1070
   175
1070
     0
1070
   179
1070
     0
1070
   274
1070
     3
1070
   283
1070
     0
1070
   284
1070
     8
1070
   340
1005
25
1070
   371
1070
    -1
1070
   372
1070
    -1
1002
}
  0
MULTILEADER
  5
429E7
330
2
100
AcDbEntity
  8
0
  6
Continuous
 62
     7
160
               736
310
E0020000190000000C00000016000000020000C30C00000033000000000000000C00000013000000993A00000C00000016000000020000C3E00000002600000007F61DC7F5AE3940F419F058362F6640000000000000000000000000000000000000000000000000000000000000F03F000000000000F03F00000000000000
310
00000000000000000055004E00430035002F0038002D0031003100000009000000010000000000000000000840000000000000F03F0000000000000000000000000000F03F00000000000000000000000000000000000000000000000000000000010000000000000000000000690073006F00630070002E00730068007800
310
00007700680067007400780074002E00730068007800000067000C00000033000000000000000C00000010000000000000000C00000016000000030000C30C00000012000000000000000C00000013000000010000000C00000014000000010000005400000007000000030000008DD98D2806C845409845F53891C8634000
310
000000000000007080F3CF2022454024C2E79B9B4D63400000000000000000646FF7B18A1F4540EEDDBB305FCF634000000000000000000C00000013000000891300003C000000060000000200000078A4426DC8734540C391D834F8CB63400000000000000000900F3D2B5CF24640C4E6BC25031C66400000000000000000
310
0C00000013000000112700003C0000000600000002000000900F3D2B5CF24640C4E6BC25031C66400000000000000000E2C75BB047C44640C4E6BC25031C664000000000000000000C00000016000000030000C30C00000012000000000000000C00000017000000000000000C000000130000009A3A00003C000000060000
310
00020000005E2951FA28223A40C4E6BC25031C66400000000000000000E2C75BB047C44640C4E6BC25031C664000000000000000000C00000016000000070000C30C00000012000000000000000C00000017000000FFFFFFFF0C0000003300000000000000
100
AcDbMLeader
270
     2
300
CONTEXT_DATA{
 40
1.0
 10
24.1334377716206
 20
178.9753842057687
 30
0.0
 41
3.0
140
4.0
145
2.0
174
     1
175
     6
176
     2
177
     0
290
     1
304
UNC5/8-11
 11
0.0
 21
0.0
 31
1.0
340
25
 12
43.53343777162047
 22
180.4753842057685
 32
0.0
 13
1.0
 23
0.0
 33
0.0
 42
0.0
 43
0.0
 44
0.0
 45
1.0
170
     1
 90
-1023410174
171
     3
172
     5
 91
-1073741824
141
0.0
 92
        0
291
     0
292
     0
173
     0
293
     0
142
0.0
143
0.0
294
     0
295
     0
296
     0
110
42.26662635221248
120
139.1259687759167
130
0.0
111
1.0
121
0.0
131
0.0
112
0.0
122
1.0
132
0.0
297
     0
302
LEADER{
290
     1
291
     1
 10
45.89343777162059
 20
176.8753842057687
 30
0.0
 11
-1.0
 21
0.0
 31
0.0
 90
        0
 40
0.36
304
LEADER_LINE{
 10
42.26662635221225
 20
154.4252452398806
 30
0.0
 91
        0
305
}
271
     0
303
}
272
     9
273
     9
301
}
340
BD9
 90
   279552
170
     1
 91
-1023410173
341
28
171
    -2
290
     1
291
     1
 41
0.36
 42
4.0
172
     2
343
25
173
     1
 95
        6
174
     1
175
     2
 92
-1023410174
292
     0
 93
-1056964608
 10
1.0
 20
1.0
 30
1.0
 43
0.0
176
     0
293
     0
294
     0
178
     0
179
     3
 45
1.0
271
     0
272
     9
273
     9
295
     1
  0
LINE
  5
429E8
330
2
100
AcDbEntity
  8
0
  6
Continuous
 62
     3
100
AcDbLine
 10
20.60670614571074
 20
134.7320797054887
 30
0.0
 11
20.60670614571074
 21
83.66564444852031
 31
0.0
  0
MTEXT
  5
429E9
330
2
100
AcDbEntity
  8
0
  6
Continuous
 62
     2
100
AcDbMText
 10
20.60724031485813
 20
81.21631660192736
 30
0.0
 40
3.0
 41
0.0
 46
0.0
 71
     5
 72
     1
  1
2.69
 73
     1
 44
1.0
  0
DIMENSION
  5
429EA
330
2
100
AcDbEntity
  8
0
  6
Continuous
 62
     7
100
AcDbDimension
280
     0
  2
*D5
 10
20.60670614571052
 20
167.6410232676154
 30
0.0
 11
14.22313482484567
 21
169.766318543206
 31
0.0
 70
    32
  1
0.29
 71
     5
 42
7.400000000000545
 73
     0
 74
     0
 75
     0
  3
Standard$0
100
AcDbAlignedDimension
 13
28.00670614571107
 23
154.5752452398807
 33
0.0
 14
20.60670614571052
 24
157.1596053259778
 34
0.0
100
AcDbRotatedDimension
1001
ACAD
1000
DSTYLE
1002
{
1070
    42
1040
0.625
1070
    43
1040
3.75
1070
    44
1040
1.25
1070
    48
1040
0.000000001
1070
    74
1070
     0
1070
    77
1070
     1
1070
    90
1070
     1
1070
   140
1040
3.0
1070
   141
1040
-0.5
1070
   143
1040
0.03937007874016
1070
   146
1040
0.7
1070
   147
1040
0.625
1070
   171
1070
     3
1070
   172
1070
     1
1070
   175
1070
     0
1070
   274
1070
     3
1070
   283
1070
     0
1070
   284
1070
     8
1070
   340
1005
25
1070
   371
1070
    -1
1070
   372
1070
    -1
1002
}
  0
LINE
  5
429EB
330
2
100
AcDbEntity
  8
0
  6
Continuous
 62
     3
100
AcDbLine
 10
96.17278711337384
 20
104.6884664837001
 30
0.0
 11
96.17278711337384
 21
78.39769412163002
 31
0.0
  0
MTEXT
  5
429EC
330
2
100
AcDbEntity
  8
0
  6
Continuous
 62
     2
100
AcDbMText
 10
96.11733034324778
 20
75.91624986112117
 30
0.0
 40
3.0
 41
0.0
 46
0.0
 71
     5
 72
     1
  1
0.04
 73
     1
 44
1.0
  0
LINE
  5
429ED
330
2
100
AcDbEntity
  8
0
  6
Continuous
 62
     3
100
AcDbLine
 10
89.8567061457116
 20
114.6671970103823
 30
0.0
 11
89.8567061457116
 21
106.4372076521442
 31
0.0
  0
LINE
  5
429EE
330
2
100
AcDbEntity
  8
0
  6
Continuous
 62
     3
100
AcDbLine
 10
89.8567061457116
 20
106.4372076521442
 30
0.0
 11
96.17278711337384
 21
104.6884664837001
 31
0.0
  0
LINE
  5
42AE6
330
2
100
AcDbEntity
  8
0
  6
Continuous
100
AcDbLine
 10
293.6567061457105
 20
127.8752452398822
 30
0.0
 11
293.65670614571
 21
146.4252452398824
 31
0.0
  0
LINE
  5
42AE7
330
2
100
AcDbEntity
  8
0
  6
Continuous
 62
     7
100
AcDbLine
 10
293.1567061457105
 20
127.3752452398822
 30
0.0
 11
293.6567061457105
 21
127.8752452398822
 31
0.0
  0
LINE
  5
42AE9
102
{ACAD_REACTORS
330
4343F
102
}
330
2
100
AcDbEntity
  8
0
  6
Continuous
 62
     2
100
AcDbLine
 10
255.5567061457105
 20
151.1877452398822
 30
0.0
 11
255.5567061457101
 21
146.4252452398824
 31
0.0
  0
LINE
  5
42AEA
102
{ACAD_REACTORS
330
4343F
102
}
330
2
100
AcDbEntity
  8
0
  6
Continuous
 62
     3
100
AcDbLine
 10
272.3060391915871
 20
151.1877452398831
 30
0.0
 11
255.5567061457105
 21
151.1877452398822
 31
0.0
  0
LINE
  5
42AEB
102
{ACAD_REACTORS
330
4343F
102
}
330
2
100
AcDbEntity
  8
0
  6
Continuous
 62
     7
100
AcDbLine
 10
275.15670614571
 20
156.1252452398831
 30
0.0
 11
272.0750990839111
 21
150.7877452398826
 31
0.0
  0
LINE
  5
42AEC
330
2
100
AcDbEntity
  8
0
  6
Continuous
 62
     7
100
AcDbLine
 10
293.1567061457105
 20
127.3752452398822
 30
0.0
 11
242.8567061457098
 21
127.3752452398822
 31
0.0
  0
LINE
  5
42AED
102
{ACAD_REACTORS
330
4343F
102
}
330
2
100
AcDbEntity
  8
0
  6
Continuous
100
AcDbLine
 10
293.65670614571
 20
164.9752452398826
 30
0.0
 11
293.6567061457109
 21
146.4252452398824
 31
0.0
  0
LINE
  5
42AEE
102
{ACAD_REACTORS
330
4343F
102
}
330
2
100
AcDbEntity
  8
0
  6
Continuous
 62
     7
100
AcDbLine
 10
293.2217061457101
 20
159.325245239883
 30
0.0
 11
293.6567061457105
 21
159.7602452398824
 31
0.0
  0
LINE
  5
42AEF
330
2
100
AcDbEntity
  8
0
  6
Continuous
100
AcDbLine
 10
245.5567061457101
 20
150.7877452398826
 30
0.0
 11
245.5567061457101
 21
146.4252452398824
 31
0.0
  0
LINE
  5
42AF0
102
{ACAD_REACTORS
330
4343F
102
}
330
2
100
AcDbEntity
  8
0
  6
Continuous
100
AcDbLine
 10
278.4167061457103
 20
159.3752452398831
 30
0.0
 11
278.4167061457103
 21
146.4252452398824
 31
0.0
  0
LINE
  5
42AF1
102
{ACAD_REACTORS
330
4343F
102
}
330
2
100
AcDbEntity
  8
0
  6
Continuous
 62
     7
100
AcDbLine
 10
293.65670614571
 20
164.9752452398826
 30
0.0
 11
293.15670614571
 21
165.4752452398826
 31
0.0
  0
LINE
  5
42AF2
102
{ACAD_REACTORS
330
4343F
102
}
330
2
100
AcDbEntity
  8
0
  6
Continuous
 62
     7
100
AcDbLine
 10
292.8752959841969
 20
159.1252452398831
 30
0.0
 11
278.4167061457103
 21
159.1252452398831
 31
0.0
  0
LINE
  5
42AF3
102
{ACAD_REACTORS
330
4343F
102
}
330
2
100
AcDbEntity
  8
0
  6
Continuous
 62
     7
100
AcDbLine
 10
278.4167061457103
 20
159.3752452398831
 30
0.0
 11
275.15670614571
 21
159.3752452398831
 31
0.0
  0
LINE
  5
42AF4
102
{ACAD_REACTORS
330
4343F
102
}
330
2
100
AcDbEntity
  8
0
  6
Continuous
 62
     7
100
AcDbLine
 10
275.15670614571
 20
159.3752452398831
 30
0.0
 11
275.15670614571
 21
146.4252452398824
 31
0.0
  0
LINE
  5
42AF5
102
{ACAD_REACTORS
330
4343F
102
}
330
2
100
AcDbEntity
  8
0
  6
Continuous
100
AcDbLine
 10
244.6112950799189
 20
152.4252452398697
 30
0.0
 11
245.5567061457101
 21
150.7877452398826
 31
0.0
  0
LINE
  5
42AF6
102
{ACAD_REACTORS
330
4343F
102
}
330
2
100
AcDbEntity
  8
0
  6
Continuous
 62
     7
100
AcDbLine
 10
272.0750990839111
 20
150.7877452398826
 30
0.0
 11
245.5567061457101
 21
150.7877452398817
 31
0.0
  0
LINE
  5
42AF7
330
2
100
AcDbEntity
  8
0
  6
Continuous
 62
     7
100
AcDbLine
 10
272.0750990839111
 20
150.7877452398826
 30
0.0
 11
272.0750990839111
 21
146.4252452398824
 31
0.0
  0
LINE
  5
42AF8
330
2
100
AcDbEntity
  8
0
  6
Continuous
 62
     4
100
AcDbLine
 10
293.1567061457105
 20
127.3752452398822
 30
0.0
 11
293.15670614571
 21
146.4252452398824
 31
0.0
  0
LINE
  5
42AF9
330
2
100
AcDbEntity
  8
0
  6
Continuous
 62
     7
100
AcDbLine
 10
292.8752959841969
 20
159.1252452398831
 30
0.0
 11
292.8752959841969
 21
146.4252452398824
 31
0.0
  0
LINE
  5
42AFA
330
2
100
AcDbEntity
  8
0
  6
Continuous
 62
     7
100
AcDbLine
 10
293.2217061457105
 20
159.325245239883
 30
0.0
 11
293.2217061457105
 21
146.4252452398824
 31
0.0
  0
LINE
  5
42AFB
102
{ACAD_REACTORS
330
4343F
102
}
330
2
100
AcDbEntity
  8
0
  6
Continuous
 62
     7
100
AcDbLine
 10
293.2217061457105
 20
159.325245239883
 30
0.0
 11
292.8752959841969
 21
159.1252452398831
 31
0.0
  0
LINE
  5
42B04
330
2
100
AcDbEntity
  8
0
  6
CENTER2
 62
     3
100
AcDbLine
 10
294.5232310305474
 20
162.3002452398824
 30
0.0
 11
290.4548092607785
 21
162.3002452398824
 31
0.0
  0
LINE
  5
42B05
102
{ACAD_REACTORS
330
4343F
102
}
330
2
100
AcDbEntity
  8
0
  6
Continuous
 62
     7
100
AcDbLine
 10
293.5897188476007
 20
163.0502452398788
 30
0.0
 11
293.1567061457105
 21
162.3002452398824
 31
0.0
  0
LINE
  5
42B06
102
{ACAD_REACTORS
330
4343F
102
}
330
2
100
AcDbEntity
  8
0
  6
Continuous
 62
     7
100
AcDbLine
 10
293.5897188476007
 20
163.0502452398788
 30
0.0
 11
293.65670614571
 21
163.0502452398788
 31
0.0
  0
LINE
  5
42B07
330
2
100
AcDbEntity
  8
0
  6
Continuous
 62
     4
100
AcDbLine
 10
293.5897188476007
 20
163.0502452398788
 30
0.0
 11
293.5897188476007
 21
162.3002452398824
 31
0.0
  0
LINE
  5
42B08
102
{ACAD_REACTORS
330
4343F
102
}
330
2
100
AcDbEntity
  8
0
  6
Continuous
 62
     7
100
AcDbLine
 10
293.5897188476007
 20
161.550245239886
 30
0.0
 11
293.1567061457105
 21
162.3002452398824
 31
0.0
  0
LINE
  5
42B09
102
{ACAD_REACTORS
330
4343F
102
}
330
2
100
AcDbEntity
  8
0
  6
Continuous
 62
     7
100
AcDbLine
 10
293.5897188476007
 20
161.550245239886
 30
0.0
 11
293.65670614571
 21
161.550245239886
 31
0.0
  0
LINE
  5
42B0A
330
2
100
AcDbEntity
  8
0
  6
Continuous
 62
     4
100
AcDbLine
 10
293.5897188476007
 20
161.550245239886
 30
0.0
 11
293.5897188476007
 21
162.3002452398824
 31
0.0
  0
LINE
  5
42B0B
330
2
100
AcDbEntity
  8
0
  6
CENTER2
 62
     3
100
AcDbLine
 10
294.5232310305474
 20
130.5502452398824
 30
0.0
 11
290.4548092607785
 21
130.5502452398824
 31
0.0
  0
LINE
  5
42B0C
102
{ACAD_REACTORS
330
4343F
102
}
330
2
100
AcDbEntity
  8
0
  6
Continuous
 62
     3
100
AcDbLine
 10
255.5567061457105
 20
151.1877452398822
 30
0.0
 11
254.8638858226829
 21
150.7877452398817
 31
0.0
  0
CIRCLE
  5
42B0D
330
2
100
AcDbEntity
  8
0
  6
Continuous
 62
     7
100
AcDbCircle
 10
350.0211511178218
 20
146.4252452398851
 30
0.0
 40
4.362500000000181
  0
MULTILEADER
  5
42B0E
330
2
100
AcDbEntity
  8
0
  6
Continuous
 62
     7
160
               716
310
CC020000180000000C00000016000000020000C30C00000033000000000000000C00000013000000993A00000C00000016000000020000C3F0000000260000005D526801604B75404C6DA9A6E6EA5B40000000000000000000000000000000000000000000000000000000000000F03F000000000000F03F00000000000000
310
00000000000000000055004E00460033002F0038002D003200340020005400480052004500410044000000000010000000010000000000000000000840000000000000F03F0000000000000000000000000000F03F000000000000000000000000000000000000000000000000000000000100000000000000000000006900
310
73006F00630070002E0073006800780000007700680067007400780074002E00730068007800000000000C00000033000000000000000C00000010000000000000000C00000016000000030000C30C00000012000000000000000C00000013000000010000000C00000014000000010000005400000007000000030000009B
310
14391CBFB47540A89B08B26C7661400000000000000000F0E263214CC97540C4320D8557BC61400000000000000000737D730032C17540B8DF54A5DF6C614000000000000000000C00000013000000891300005400000006000000030000000749568EF8BA7540B0BDAE2BA6716140000000000000000010F82A9A0C197540
310
486DA9A6E64A5C40000000000000000090859B3493427540486DA9A6E64A5C4000000000000000000C00000013000000122700003C000000060000000200000090859B3493427540486DA9A6E64A5C40000000000000000090859B34934A7540486DA9A6E64A5C4000000000000000000C00000016000000030000C30C0000
310
0012000000000000000C00000017000000000000000C000000130000009A3A00000C00000016000000070000C30C00000012000000000000000C00000017000000FFFFFFFF0C0000003300000000000000
100
AcDbMLeader
270
     2
300
CONTEXT_DATA{
 40
1.0
 10
340.6609388423031
 20
113.1703278212127
 30
0.0
 41
3.0
140
2.5
145
0.5
174
     2
175
     2
176
     0
177
     1
290
     1
304
UNF3/8-24 THREAD
 11
0.0
 21
0.0
 31
1.0
340
25
 12
341.160938842303
 22
114.6911909156916
 32
0.0
 13
1.0
 23
0.0
 33
0.0
 42
0.0
 43
36.56470164342226
 44
0.0
 45
1.0
170
     1
 90
-1023410174
171
     1
172
     5
 91
-1073741824
141
0.0
 92
        0
291
     0
292
     0
173
     0
293
     0
142
0.0
143
0.0
294
     0
295
     0
296
     0
110
348.5810865308585
120
141.8856835611133
130
0.0
111
1.0
121
0.0
131
0.0
112
0.0
122
1.0
132
0.0
297
     0
302
LEADER{
290
     1
291
     1
 10
340.160938842303
 20
113.1703278212127
 30
0.0
 11
1.0
 21
0.0
 31
0.0
 90
        1
 40
0.5
304
LEADER_LINE{
 10
348.5810865308585
 20
141.8856835611133
 30
0.0
 10
337.5655767134167
 20
113.1703278212127
 30
0.0
 91
        0
305
}
271
     0
303
}
272
     9
273
     9
301
}
340
BD9
 90
   347136
170
     1
 91
-1023410173
341
28
171
    -1
290
     1
291
     1
 41
0.5
 42
2.5
172
     2
343
25
173
     2
 95
        2
174
     1
175
     2
 92
-1023410174
292
     0
 93
-1023410174
 10
1.0
 20
1.0
 30
1.0
 43
0.0
176
     1
293
     0
294
     0
178
     0
179
     1
 45
1.0
271
     0
272
     9
273
     9
295
     0
  0
CIRCLE
  5
42B0F
330
2
100
AcDbEntity
  8
0
  6
Continuous
 62
     7
100
AcDbCircle
 10
350.0211511178218
 20
146.4252452398851
 30
0.0
 40
19.04999999999995
  0
CIRCLE
  5
42B10
330
2
100
AcDbEntity
  8
0
  6
Continuous
 62
     7
100
AcDbCircle
 10
350.0211511178209
 20
146.4252452398851
 30
0.0
 40
18.55000000000041
  0
CIRCLE
  5
42B11
330
2
100
AcDbEntity
  8
0
  6
Continuous
 62
     7
100
AcDbCircle
 10
350.0211511178218
 20
146.4252452398851
 30
0.0
 40
13.33500000000049
  0
CIRCLE
  5
42B12
330
2
100
AcDbEntity
  8
0
  6
Continuous
 62
     7
100
AcDbCircle
 10
350.0211511178218
 20
146.4252452398851
 30
0.0
 40
12.70000000000004
  0
CIRCLE
  5
42B13
330
2
100
AcDbEntity
  8
0
  6
CENTER2
 62
     3
100
AcDbCircle
 10
350.0211511178222
 20
146.4252452398851
 30
0.0
 40
15.87500000000034
  0
DIMENSION
  5
42B14
330
2
100
AcDbEntity
  8
0
  6
Continuous
 62
     7
100
AcDbDimension
280
     0
  2
*D7
 10
335.5475591904092
 20
160.8988371672968
 30
0.0
 11
338.7377419004778
 21
173.6658048022015
 31
0.0
 70
    34
 71
     5
 42
0.7853981633974663
 73
     0
 74
     0
 75
     0
  3
Standard
100
AcDb2LineAngularDimension
 13
350.0211511178218
 23
147.4252452398851
 33
0.0
 14
350.0211511178218
 24
166.8939952398851
 34
0.0
 15
349.3140443366355
 25
147.1323520210709
 35
0.0
 16
342.9398700149638
 26
172.8529460984273
 36
0.0
1001
ACAD
1000
DSTYLE
1002
{
1070
     3
1000
8-<>
1070
    42
1040
0.625
1070
    43
1040
3.75
1070
    44
1040
1.25
1070
    48
1040
0.000000001
1070
    74
1070
     0
1070
    77
1070
     1
1070
    90
1070
     1
1070
   140
1040
3.0
1070
   141
1040
-0.5
1070
   143
1040
0.03937007874016
1070
   146
1040
0.7
1070
   147
1040
0.625
1070
   171
1070
     3
1070
   172
1070
     1
1070
   175
1070
     0
1070
   179
1070
     0
1070
   274
1070
     3
1070
   283
1070
     0
1070
   284
1070
     8
1070
   340
1005
25
1070
   371
1070
    -1
1070
   372
1070
    -1
1002
}
  0
LINE
  5
42B15
330
2
100
AcDbEntity
  8
0
  6
Continuous
 62
     3
100
AcDbLine
 10
349.3961511178218
 20
146.4252452398851
 30
0.0
 11
350.6461511178218
 21
146.4252452398851
 31
0.0
  0
LINE
  5
42B16
330
2
100
AcDbEntity
  8
0
  6
Continuous
 62
     3
100
AcDbLine
 10
350.0211511178218
 20
145.8002452398851
 30
0.0
 11
350.0211511178218
 21
147.0502452398851
 31
0.0
  0
LINE
  5
42B17
330
2
100
AcDbEntity
  8
0
  6
Continuous
 62
     3
100
AcDbLine
 10
348.7711511178218
 20
146.4252452398851
 30
0.0
 11
329.5524011178218
 21
146.4252452398851
 31
0.0
  0
LINE
  5
42B18
330
2
100
AcDbEntity
  8
0
  6
Continuous
 62
     3
100
AcDbLine
 10
351.2711511178218
 20
146.4252452398851
 30
0.0
 11
370.4899011178218
 21
146.4252452398851
 31
0.0
  0
LINE
  5
42B19
330
2
100
AcDbEntity
  8
0
  6
Continuous
 62
     3
100
AcDbLine
 10
350.0211511178218
 20
145.1752452398851
 30
0.0
 11
350.0211511178218
 21
125.9564952398851
 31
0.0
  0
LINE
  5
42B1A
330
2
100
AcDbEntity
  8
0
  6
Continuous
 62
     3
100
AcDbLine
 10
350.0211511178218
 20
147.6752452398851
 30
0.0
 11
350.0211511178218
 21
166.8939952398851
 31
0.0
  0
LINE
  5
42B1B
330
2
100
AcDbEntity
  8
0
  6
Continuous
 62
     3
100
AcDbLine
 10
349.1372676413385
 20
147.309128716368
 30
0.0
 11
335.5475591904092
 21
160.8988371672968
 31
0.0
  0
DIMENSION
  5
42B1C
330
2
100
AcDbEntity
  8
0
  6
Continuous
 62
     7
100
AcDbDimension
280
     0
  2
*D8
 10
363.1901694941116
 20
155.2904908656373
 30
0.0
 11
325.9684341548025
 21
130.233207401437
 31
0.0
 70
   163
  1
%%c1.25
 71
     5
 42
31.75000000000102
 73
     0
 74
     0
 75
     0
  3
Standard
100
AcDbDiametricDimension
 15
336.852132741536
 25
137.5599996141226
 35
0.0
 40
0.0
1001
ACAD
1000
DSTYLE
1002
{
1070
    42
1040
0.625
1070
    43
1040
3.75
1070
    44
1040
1.25
1070
    48
1040
0.000000001
1070
    74
1070
     0
1070
    77
1070
     1
1070
    90
1070
     1
1070
   140
1040
3.0
1070
   141
1040
-0.5
1070
   143
1040
0.03937007874016
1070
   146
1040
0.7
1070
   147
1040
0.625
1070
   171
1070
     3
1070
   172
1070
     1
1070
   175
1070
     0
1070
   274
1070
     3
1070
   283
1070
     0
1070
   284
1070
     8
1070
   288
1070
     1
1070
   340
1005
25
1070
   371
1070
    -1
1070
   372
1070
    -1
1002
}
1001
ACAD_DSTYLE_DIMRADIAL_EXTENSION
1070
   387
1070
     1
1070
   388
1040
0.0
1070
   390
1040
0.0
  0
ARC
  5
42B1D
330
2
100
AcDbEntity
  8
0
  6
Continuous
 62
     3
100
AcDbCircle
 10
350.0211511178231
 20
146.4252452398851
 30
0.0
 40
4.7625000000005
100
AcDbArc
 50
353.9735895319728
 51
276.0264104680041
  0
CIRCLE
  5
42B1E
330
2
100
AcDbEntity
  8
0
  6
Continuous
 62
     7
100
AcDbCircle
 10
350.0211511178222
 20
162.3002452398851
 30
0.0
 40
1.5
  0
CIRCLE
  5
42B1F
330
2
100
AcDbEntity
  8
0
  6
Continuous
 62
     7
100
AcDbCircle
 10
361.246471269159
 20
157.6505653912219
 30
0.0
 40
1.5
  0
CIRCLE
  5
42B20
330
2
100
AcDbEntity
  8
0
  6
Continuous
 62
     7
100
AcDbCircle
 10
365.8961511178222
 20
146.4252452398851
 30
0.0
 40
1.5
  0
CIRCLE
  5
42B21
330
2
100
AcDbEntity
  8
0
  6
Continuous
 62
     7
100
AcDbCircle
 10
361.246471269158
 20
135.1999250885484
 30
0.0
 40
1.5
  0
CIRCLE
  5
42B22
330
2
100
AcDbEntity
  8
0
  6
Continuous
 62
     7
100
AcDbCircle
 10
350.0211511178222
 20
130.5502452398851
 30
0.0
 40
1.5
  0
CIRCLE
  5
42B23
330
2
100
AcDbEntity
  8
0
  6
Continuous
 62
     7
100
AcDbCircle
 10
338.7958309664855
 20
135.1999250885484
 30
0.0
 40
1.5
  0
CIRCLE
  5
42B24
330
2
100
AcDbEntity
  8
0
  6
Continuous
 62
     7
100
AcDbCircle
 10
334.1461511178218
 20
146.4252452398851
 30
0.0
 40
1.5
  0
CIRCLE
  5
42B25
330
2
100
AcDbEntity
  8
0
  6
Continuous
 62
     7
100
AcDbCircle
 10
338.795830966485
 20
157.650565391221
 30
0.0
 40
1.5
  0
LINE
  5
42B26
330
2
100
AcDbEntity
  8
0
  6
CENTER
 62
     3
100
AcDbLine
 10
18.60670614571052
 20
146.4252452398942
 30
0.0
 11
295.6567061457109
 21
146.4252452399279
 31
0.0
  0
LINE
  5
42B27
102
{ACAD_REACTORS
330
4343F
102
}
330
2
100
AcDbEntity
  8
0
  6
Continuous
 62
     7
100
AcDbLine
 10
88.85670614571052
 20
168.6502452398809
 30
0.0
 11
22.12812850621219
 21
158.918994968698
 31
0.0
  0
ARC
  5
42B28
102
{ACAD_REACTORS
330
4343F
102
}
330
2
100
AcDbEntity
  8
0
  6
Continuous
 62
     7
100
AcDbCircle
 10
22.38470614571077
 20
157.1596053259792
 30
0.0
 40
1.778
100
AcDbArc
 50
98.29714443637167
 51
180.0
  0
LINE
  5
42B29
102
{ACAD_REACTORS
330
4343F
102
}
330
2
100
AcDbEntity
  8
0
  6
Continuous
100
AcDbLine
 10
22.3387569532805
 20
154.5752452398802
 30
0.0
 11
28.00670614571198
 21
154.575245239882
 31
0.0
  0
LINE
  5
42B2A
330
2
100
AcDbEntity
  8
0
  6
Continuous
 62
     7
100
AcDbLine
 10
88.85670614571052
 20
124.2002452398802
 30
0.0
 11
22.12812850621219
 21
133.9314955110632
 31
0.0
  0
ARC
  5
42B2B
330
2
100
AcDbEntity
  8
0
  6
Continuous
 62
     7
100
AcDbCircle
 10
22.38470614571077
 20
135.6908851537838
 30
0.0
 40
1.778
100
AcDbArc
 50
180.0
 51
261.7028555636283
  0
LINE
  5
42B2C
330
2
100
AcDbEntity
  8
0
  6
Continuous
100
AcDbLine
 10
20.60670614571052
 20
146.4252452398824
 30
0.0
 11
20.60670614571052
 21
135.6908851537838
 31
0.0
  0
LINE
  5
42B2D
102
{ACAD_REACTORS
330
4343F
102
}
330
2
100
AcDbEntity
  8
0
  6
Continuous
100
AcDbLine
 10
20.60670614571052
 20
146.4252452398824
 30
0.0
 11
20.60670614571052
 21
157.1596053259792
 31
0.0
  0
POINT
  5
42B2E
330
2
100
AcDbEntity
  8
DEFPOINTS
  6
ByBlock
 62
     0
100
AcDbPoint
 10
20.60670614571052
 20
146.4252452398824
 30
0.0
  0
LINE
  5
42B2F
102
{ACAD_REACTORS
330
4343F
102
}
330
2
100
AcDbEntity
  8
0
  6
Continuous
100
AcDbLine
 10
65.60670614571051
 20
153.4252452398824
 30
0.0
 11
28.67648047469799
 21
153.4252452398824
 31
0.0
  0
LINE
  5
42B30
102
{ACAD_REACTORS
330
4343F
102
}
330
2
100
AcDbEntity
  8
0
  6
Continuous
 62
     3
100
AcDbLine
 10
50.60670614571051
 20
154.4252452398824
 30
0.0
 11
28.09406801471039
 21
154.4252452398806
 31
0.0
  0
LINE
  5
42B31
102
{ACAD_REACTORS
330
4343F
102
}
330
2
100
AcDbEntity
  8
0
  6
Continuous
100
AcDbLine
 10
28.00670614571198
 20
154.575245239882
 30
0.0
 11
28.67648047469799
 21
153.4252452398824
 31
0.0
  0
POINT
  5
42B32
330
2
100
AcDbEntity
  8
DEFPOINTS
  6
ByBlock
 62
     0
100
AcDbPoint
 10
27.85670614571052
 20
154.5752452398802
 30
0.0
  0
LINE
  5
42B33
330
2
100
AcDbEntity
  8
0
  6
Continuous
100
AcDbLine
 10
28.00670614571198
 20
146.4252452398824
 30
0.0
 11
28.00670614571198
 21
154.575245239882
 31
0.0
  0
LINE
  5
42B34
330
2
100
AcDbEntity
  8
0
  6
Continuous
100
AcDbLine
 10
28.67648047469799
 20
153.4252452398824
 30
0.0
 11
28.67648047469799
 21
146.4252452398824
 31
0.0
  0
LINE
  5
42B35
102
{ACAD_REACTORS
330
4343F
102
}
330
2
100
AcDbEntity
  8
0
  6
Continuous
 62
     3
100
AcDbLine
 10
50.60670614571051
 20
154.4252452398824
 30
0.0
 11
52.42630920694125
 21
153.4252452398824
 31
0.0
  0
LINE
  5
42B36
102
{ACAD_REACTORS
330
4343F
102
}
330
2
100
AcDbEntity
  8
0
  6
Continuous
 62
     2
100
AcDbLine
 10
50.60670614571051
 20
154.4252452398824
 30
0.0
 11
50.60670614571051
 21
146.4252452398824
 31
0.0
  0
LINE
  5
42B37
330
2
100
AcDbEntity
  8
0
  6
Continuous
100
AcDbLine
 10
65.60670614571051
 20
153.4252452398824
 30
0.0
 11
65.60670614571051
 21
146.4252452398824
 31
0.0
  0
LINE
  5
42B38
102
{ACAD_REACTORS
330
4343F
102
}
330
2
100
AcDbEntity
  8
0
  6
Continuous
100
AcDbLine
 10
20.60670614571052
 20
155.5752452398802
 30
0.0
 11
22.3387569532805
 21
154.5752452398802
 31
0.0
  0
LINE
  5
42B39
330
2
100
AcDbEntity
  8
0
  6
Continuous
100
AcDbLine
 10
22.3387569532805
 20
154.5752452398802
 30
0.0
 11
22.3387569532805
 21
146.4252452398824
 31
0.0
  0
LINE
  5
42B3A
330
2
100
AcDbEntity
  8
0
  6
Continuous
100
AcDbLine
 10
96.21792197706771
 20
114.6752452398824
 30
0.0
 11
90.35670614571051
 21
114.6752452398824
 31
0.0
  0
LINE
  5
42B3B
330
2
100
AcDbEntity
  8
0
  6
Continuous
100
AcDbLine
 10
96.50659711166179
 20
114.7669969494174
 30
0.0
 11
96.50659711166179
 21
138.2337452398816
 31
0.0
  0
LINE
  5
42B3C
330
2
100
AcDbEntity
  8
0
  6
Continuous
100
AcDbLine
 10
98.11500614571002
 20
138.2337452398816
 30
0.0
 11
98.11500614571002
 21
117.461091406206
 31
0.0
  0
LINE
  5
42B3D
330
2
100
AcDbEntity
  8
0
  6
Continuous
100
AcDbLine
 10
103.55881517976
 20
114.7669969494174
 30
0.0
 11
103.55881517976
 21
138.2337452398816
 31
0.0
  0
LINE
  5
42B3E
330
2
100
AcDbEntity
  8
0
  6
Continuous
100
AcDbLine
 10
101.9504061457118
 20
138.2337452398816
 30
0.0
 11
101.9504061457118
 21
117.461091406206
 31
0.0
  0
LINE
  5
42B3F
330
2
100
AcDbEntity
  8
0
  6
Continuous
100
AcDbLine
 10
107.1067061457105
 20
114.6752452398824
 30
0.0
 11
103.8474903143541
 21
114.6752452398824
 31
0.0
  0
LINE
  5
42B40
330
2
100
AcDbEntity
  8
0
  6
Continuous
100
AcDbLine
 10
98.13270614571036
 20
118.2752452398809
 30
0.0
 11
101.9327061457114
 21
118.2752452398809
 31
0.0
  0
LINE
  5
42B41
330
2
100
AcDbEntity
  8
0
  6
Continuous
100
AcDbLine
 10
98.11500614571002
 20
117.461091406206
 30
0.0
 11
96.65093467896065
 21
114.9252452398824
 31
0.0
  0
ARC
  5
42B42
330
2
100
AcDbEntity
  8
0
  6
Continuous
100
AcDbCircle
 10
96.21792197706771
 20
115.1752452398824
 30
0.0
 40
0.5
100
AcDbArc
 50
270.0
 51
329.9999999999998
  0
LINE
  5
42B43
330
2
100
AcDbEntity
  8
0
  6
Continuous
100
AcDbLine
 10
101.9504061457118
 20
117.461091406206
 30
0.0
 11
103.414477612463
 21
114.9252452398824
 31
0.0
  0
POINT
  5
42B44
330
2
100
AcDbEntity
  8
DEFPOINTS
  6
ByBlock
 62
     0
100
AcDbPoint
 10
101.9327061457114
 20
118.2752452398809
 30
0.0
  0
POINT
  5
42B45
330
2
100
AcDbEntity
  8
DEFPOINTS
  6
ByBlock
 62
     0
100
AcDbPoint
 10
101.9327061457114
 20
117.483367943386
 30
0.0
  0
ARC
  5
42B46
330
2
100
AcDbEntity
  8
0
  6
Continuous
100
AcDbCircle
 10
103.8474903143541
 20
115.1752452398824
 30
0.0
 40
0.5
100
AcDbArc
 50
210.0000000000002
 51
270.0
  0
LINE
  5
42B47
102
{ACAD_REACTORS
330
4343F
102
}
330
2
100
AcDbEntity
  8
0
  6
Continuous
100
AcDbLine
 10
96.21792197706771
 20
178.1752452398824
 30
0.0
 11
90.35670614571024
 21
178.1752452398793
 31
0.0
  0
LINE
  5
42B48
102
{ACAD_REACTORS
330
4343F
102
}
330
2
100
AcDbEntity
  8
0
  6
Continuous
100
AcDbLine
 10
98.13270614571036
 20
174.5752452398802
 30
0.0
 11
101.9327061457114
 21
174.5752452398802
 31
0.0
  0
ARC
  5
42B49
102
{ACAD_REACTORS
330
4343F
102
}
330
2
100
AcDbEntity
  8
0
  6
Continuous
100
AcDbCircle
 10
96.21792197706771
 20
177.6752452398824
 30
0.0
 40
0.5
100
AcDbArc
 50
30.00000000000016
 51
90.0
  0
LINE
  5
42B4A
102
{ACAD_REACTORS
330
4343F
102
}
330
2
100
AcDbEntity
  8
0
  6
Continuous
100
AcDbLine
 10
98.11500614571002
 20
174.5752452398802
 30
0.0
 11
98.11500614571185
 21
175.389399073557
 31
0.0
  0
POINT
  5
42B4B
330
2
100
AcDbEntity
  8
DEFPOINTS
  6
ByBlock
 62
     0
100
AcDbPoint
 10
98.13270614571036
 20
175.3671225363752
 30
0.0
  0
LINE
  5
42B4C
102
{ACAD_REACTORS
330
4343F
102
}
330
2
100
AcDbEntity
  8
0
  6
Continuous
100
AcDbLine
 10
98.11500614571002
 20
175.389399073557
 30
0.0
 11
96.65093467896065
 21
177.9252452398824
 31
0.0
  0
LINE
  5
42B4D
102
{ACAD_REACTORS
330
4343F
102
}
330
2
100
AcDbEntity
  8
0
  6
Continuous
100
AcDbLine
 10
101.9504061457118
 20
174.5752452398802
 30
0.0
 11
101.9504061457099
 21
175.389399073557
 31
0.0
  0
POINT
  5
42B4E
330
2
100
AcDbEntity
  8
DEFPOINTS
  6
ByBlock
 62
     0
100
AcDbPoint
 10
101.9327061457114
 20
175.3671225363752
 30
0.0
  0
POINT
  5
42B4F
330
2
100
AcDbEntity
  8
DEFPOINTS
  6
ByBlock
 62
     0
100
AcDbPoint
 10
101.9327061457114
 20
174.5752452398802
 30
0.0
  0
LINE
  5
42B50
102
{ACAD_REACTORS
330
4343F
102
}
330
2
100
AcDbEntity
  8
0
  6
Continuous
100
AcDbLine
 10
101.9504061457118
 20
175.389399073557
 30
0.0
 11
103.414477612463
 21
177.9252452398824
 31
0.0
  0
ARC
  5
42B51
102
{ACAD_REACTORS
330
4343F
102
}
330
2
100
AcDbEntity
  8
0
  6
Continuous
100
AcDbCircle
 10
103.8474903143541
 20
177.6752452398824
 30
0.0
 40
0.5
100
AcDbArc
 50
90.0
 51
149.9999999999998
  0
LINE
  5
42B52
102
{ACAD_REACTORS
330
4343F
102
}
330
2
100
AcDbEntity
  8
0
  6
Continuous
100
AcDbLine
 10
107.1067061457105
 20
178.1752452398824
 30
0.0
 11
103.8474903143541
 21
178.1752452398824
 31
0.0
  0
LINE
  5
42B53
330
2
100
AcDbEntity
  8
0
  6
Continuous
100
AcDbLine
 10
107.9067061457116
 20
115.4752452398817
 30
0.0
 11
107.9067061457201
 21
146.4252452398924
 31
0.0
  0
LINE
  5
42B54
330
2
100
AcDbEntity
  8
0
  6
Continuous
 62
     7
100
AcDbLine
 10
110.4464742563631
 20
124.2345664305813
 30
0.0
 11
107.9067061457133
 21
121.6602452398975
 31
0.0
  0
ARC
  5
42B55
330
2
100
AcDbEntity
  8
0
  6
Continuous
100
AcDbCircle
 10
107.1067061457105
 20
115.4752452398817
 30
0.0
 40
0.8
100
AcDbArc
 50
270.0
 51
0.0
  0
LINE
  5
42B56
330
2
100
AcDbEntity
  8
0
  6
Continuous
100
AcDbLine
 10
92.03170614571162
 20
138.2337452398816
 30
0.0
 11
107.9067061457116
 21
138.2337452398816
 31
0.0
  0
LINE
  5
42B57
102
{ACAD_REACTORS
330
4343F
102
}
330
2
100
AcDbEntity
  8
0
  6
Continuous
100
AcDbLine
 10
107.9067061457116
 20
177.3752452398813
 30
0.0
 11
107.9067061457098
 21
171.19024523988
 31
0.0
  0
LINE
  5
42B58
330
2
100
AcDbEntity
  8
0
  6
Continuous
 62
     4
100
AcDbLine
 10
107.9067061457095
 20
170.6331194376054
 30
0.0
 11
107.906706145709
 21
168.65024523989
 31
0.0
  0
ARC
  5
42B59
102
{ACAD_REACTORS
330
4343F
102
}
330
2
100
AcDbEntity
  8
0
  6
Continuous
100
AcDbCircle
 10
107.1067061457105
 20
177.3752452398813
 30
0.0
 40
0.8
100
AcDbArc
 50
0.0
 51
90.0
  0
ARC
  5
42B5A
330
2
100
AcDbEntity
  8
0
  6
Continuous
100
AcDbCircle
 10
100.03270614571
 20
146.4252452398824
 30
0.0
 40
4.7625
100
AcDbArc
 50
180.0
 51
0.0
  0
DIMENSION
  5
42B6B
330
2
100
AcDbEntity
  8
0
  6
Continuous
 62
     4
100
AcDbDimension
280
     0
  2
*D6
 10
121.6463284068412
 20
120.5187245507201
 30
0.0
 11
121.6463284068412
 21
137.5279837452282
 31
0.0
 70
   160
  1
%%C1.75
 71
     5
 42
44.44999999996617
 73
     0
 74
     0
 75
     0
  3
사본 ISO-25
100
AcDbAlignedDimension
 13
107.9067061457116
 23
168.6502452398646
 33
0.0
 14
107.9067061457116
 24
124.2002452398984
 34
0.0
 50
90.0
100
AcDbRotatedDimension
1001
ACAD
1000
DSTYLE
1002
{
1070
     3
1000
(%%c<>)
1070
    75
1070
     1
1070
    90
1070
     1
1070
   271
1070
     3
1070
   281
1070
     1
1002
}
  0
LINE
  5
42B7B
102
{ACAD_REACTORS
330
4343F
102
}
330
2
100
AcDbEntity
  8
0
  6
Continuous
100
AcDbLine
 10
65.60670614571051
 20
153.4252452398824
 30
0.0
 11
66.18405641486958
 21
152.4252452399352
 31
0.0
  0
LINE
  5
42B7C
330
2
100
AcDbEntity
  8
0
  6
Continuous
 62
     7
100
AcDbLine
 10
66.18405641486958
 20
152.4252452399352
 30
0.0
 11
66.18405641486958
 21
146.4252452398915
 31
0.0
  0
LINE
  5
42B7D
102
{ACAD_REACTORS
330
4343F
102
}
330
2
100
AcDbEntity
  8
0
  6
Continuous
 62
     7
100
AcDbLine
 10
244.6112950799189
 20
152.4252452398697
 30
0.0
 11
194.3634170372272
 21
152.4252452398815
 31
0.0
  0
LINE
  5
42B7E
330
2
100
AcDbEntity
  8
0
  6
Continuous
 62
     7
100
AcDbLine
 10
191.3634170372277
 20
152.4252452398824
 30
0.0
 11
94.36341703723361
 21
152.4252452399051
 31
0.0
  0
LINE
  5
42B7F
102
{ACAD_REACTORS
330
4343F
102
}
330
2
100
AcDbEntity
  8
0
  6
Continuous
 62
     7
100
AcDbLine
 10
191.3634170372339
 20
152.4252452399061
 30
0.0
 11
66.18405641486958
 21
152.4252452399352
 31
0.0
  0
LINE
  5
42B81
330
2
100
AcDbEntity
  8
0
  6
Continuous
 62
     7
100
AcDbLine
 10
242.8567061457098
 20
127.3752452398822
 30
0.0
 11
242.8567061457067
 21
146.4252452399197
 31
0.0
  0
LINE
  5
42B82
102
{ACAD_REACTORS
330
4343F
102
}
330
2
100
AcDbEntity
  8
0
  6
Continuous
 62
     7
100
AcDbLine
 10
293.1567061457105
 20
165.4752452399517
 30
0.0
 11
242.8567061457098
 21
165.4752452399517
 31
0.0
  0
LINE
  5
42B83
330
2
100
AcDbEntity
  8
0
  6
Continuous
 62
     7
100
AcDbLine
 10
244.6112950799189
 20
152.4252452398697
 30
0.0
 11
244.6112950799198
 21
146.4252452399197
 31
0.0
  0
LINE
  5
42B84
102
{ACAD_REACTORS
330
4343F
102
}
330
2
100
AcDbEntity
  8
0
  6
Continuous
 62
     7
100
AcDbLine
 10
107.9067061457007
 20
171.1902452398891
 30
0.0
 11
110.445986497013
 21
168.5897861839077
 31
0.0
  0
MULTILEADER
  5
42B88
330
2
100
AcDbEntity
  8
0
  6
Continuous
 62
     7
160
               724
310
D4020000180000000C00000016000000020000C30C00000033000000000000000C00000013000000993A00000C00000016000000020000C3F8000000260000003A34C58E87B2744026D445A0DCD96640000000000000000000000000000000000000000000000000000000000000F03F000000000000F03F00000000000000
310
00000000000000000038002D00052233002E0030006D006D0020004400720069006C006C002000440050002E00300032000000000014000000010000000000000000000840000000000000F03F0000000000000000000000000000F03F00000000000000000000000000000000000000000000000000000000010000000000
310
000000000000690073006F00630070002E0073006800780000007700680067007400780074002E00730068007800000000000C00000033000000000000000C00000010000000000000000C00000016000000030000C30C00000012000000000000000C00000013000000010000000C00000014000000010000005400000007
310
00000003000000AD48C7B161B476409FD525B9F7236440000000000000000030450F0FD89D7640A4D3412D8BE063400000000000000000AE7191D03AA876409EE5E32FF12E644000000000000000000C00000013000000891300005400000006000000030000002E5D2C414EAE76409EDD8474742964400000000000000000
310
30E664D39154774024D445A0DC0967400000000000000000C058D2290329774024D445A0DC09674000000000000000000C00000013000000122700003C0000000600000002000000C058D2290329774024D445A0DC0967400000000000000000C058D2290321774024D445A0DC09674000000000000000000C000000160000
310
00030000C30C00000012000000000000000C00000017000000000000000C000000130000009A3A00000C00000016000000070000C30C00000012000000000000000C00000017000000FFFFFFFF0C0000003300000000000000
100
AcDbMLeader
270
     2
300
CONTEXT_DATA{
 40
1.0
 10
331.1080951407701
 20
184.3081818927613
 30
0.0
 41
3.0
140
2.5
145
0.5
174
     2
175
     2
176
     2
177
     1
290
     1
304
8-%%C3.0mm Drill DP.02
 11
0.0
 21
0.0
 31
1.0
340
25
 12
369.5632723061244
 22
185.8290449872403
 32
0.0
 13
1.0
 23
0.0
 33
0.0
 42
0.0
 43
0.0
 44
0.0
 45
1.0
170
     1
 90
-1023410174
171
     3
172
     5
 91
-1073741824
141
0.0
 92
        0
291
     0
292
     0
173
     0
293
     0
142
0.0
143
0.0
294
     0
295
     0
296
     0
110
361.8752041248344
120
159.1247865373181
130
0.0
111
1.0
121
0.0
131
0.0
112
0.0
122
1.0
132
0.0
297
     0
302
LEADER{
290
     1
291
     1
 10
370.5632723061244
 20
184.3081818927613
 30
0.0
 11
-1.0
 21
0.0
 31
0.0
 90
        1
 40
0.5
304
LEADER_LINE{
 10
361.8652487370009
 20
159.0169893537214
 30
0.0
 10
373.2856019917845
 20
184.3081818927613
 30
0.0
 91
        0
305
}
271
     0
303
}
272
     9
273
     9
301
}
340
BD9
 90
   347136
170
     1
 91
-1023410173
341
28
171
    -1
290
     1
291
     1
 41
0.5
 42
2.5
172
     2
343
25
173
     2
 95
        2
174
     1
175
     0
 92
-1023410174
292
     0
 93
-1023410174
 10
1.0
 20
1.0
 30
1.0
 43
0.0
176
     1
293
     0
294
     0
178
     0
179
     1
 45
1.0
271
     0
272
     9
273
     9
295
     0
  0
LINE
  5
42B89
330
2
100
AcDbEntity
  8
0
  6
Continuous
 62
     7
100
AcDbLine
 10
242.8567061457098
 20
127.3752452398822
 30
0.0
 11
187.4506681026471
 21
126.6265149960592
 31
0.0
  0
LINE
  5
42B8A
330
2
100
AcDbEntity
  8
0
  6
Continuous
 62
     7
100
AcDbLine
 10
184.0763564360379
 20
125.229564838408
 30
0.0
 11
110.4470761537983
 21
124.2345745643289
 31
0.0
  0
LINE
  5
42B8B
330
2
100
AcDbEntity
  8
0
  6
Continuous
 62
     4
100
AcDbLine
 10
109.9831001286802
 20
124.2283046180438
 30
0.0
 11
107.9067061457139
 21
124.2002452398966
 31
0.0
  0
LINE
  5
42B8C
330
2
100
AcDbEntity
  8
0
  6
Continuous
 62
     7
100
AcDbLine
 10
110.4464742563631
 20
124.2345664305813
 30
0.0
 11
110.4464742563602
 21
146.4252452398924
 31
0.0
  0
LINE
  5
42B8D
330
2
100
AcDbEntity
  8
0
  6
Continuous
 62
     4
100
AcDbLine
 10
109.9831001286802
 20
168.6221858617429
 30
0.0
 11
107.9067061457139
 21
168.65024523989
 31
0.0
  0
LINE
  5
42B8E
102
{ACAD_REACTORS
330
4343F
102
}
330
2
100
AcDbEntity
  8
0
  6
Continuous
 62
     7
100
AcDbLine
 10
242.8567061457039
 20
165.4752452399626
 30
0.0
 11
198.0224957615212
 21
166.0811129478398
 31
0.0
  0
LINE
  5
42B8F
102
{ACAD_REACTORS
330
4343F
102
}
330
2
100
AcDbEntity
  8
0
  6
Continuous
 62
     7
100
AcDbLine
 10
195.3941064915839
 20
167.467983073073
 30
0.0
 11
110.4470761537915
 21
168.6159159154441
 31
0.0
  0
LINE
  5
42B90
102
{ACAD_REACTORS
330
4343F
102
}
330
2
100
AcDbEntity
  8
0
  6
PHANTOM2
 62
     4
100
AcDbLine
 10
196.4262910632342
 20
171.3201483372596
 30
0.0
 11
183.0851527020584
 21
121.5303421425452
 31
0.0
  0
LINE
  5
42B91
102
{ACAD_REACTORS
330
4343F
102
}
330
2
100
AcDbEntity
  8
0
  6
PHANTOM2
 62
     4
100
AcDbLine
 10
199.4262910632342
 20
171.3201483372596
 30
0.0
 11
186.0851527020584
 21
121.5303421425452
 31
0.0
  0
LINE
  5
42CB9
330
2
100
AcDbEntity
  8
0
  6
Continuous
 62
     3
100
AcDbLine
 10
293.6567061457105
 20
126.9357593333379
 30
0.0
 11
293.6567061457105
 21
83.23019246704655
 31
0.0
  0
MTEXT
  5
42CBA
330
2
100
AcDbEntity
  8
0
  6
Continuous
 62
     2
100
AcDbMText
 10
293.362892212563
 20
80.74861874266606
 30
0.0
 40
3.0
 41
0.0
 46
0.0
 71
     5
 72
     1
  1
12.0
 73
     1
 44
1.0
  0
LINE
  5
431F7
102
{ACAD_REACTORS
330
4343F
102
}
330
2
100
AcDbEntity
  8
0
  6
Continuous
100
AcDbLine
 10
89.85670614571052
 20
168.3595598149305
 30
0.0
 11
89.85670614571052
 21
177.6752452398806
 31
0.0
  0
LINE
  5
431F8
330
2
100
AcDbEntity
  8
0
  6
Continuous
100
AcDbLine
 10
88.85670614571052
 20
124.2002452398802
 30
0.0
 11
88.85670614571052
 21
146.4252452398806
 31
0.0
  0
LINE
  5
431F9
330
2
100
AcDbEntity
  8
0
  6
Continuous
100
AcDbLine
 10
89.85670614571052
 20
146.4252452398806
 30
0.0
 11
89.85670614571052
 21
115.1752452398806
 31
0.0
  0
ARC
  5
431FA
330
2
100
AcDbEntity
  8
0
  6
Continuous
100
AcDbCircle
 10
90.35670614571051
 20
115.1752452398806
 30
0.0
 40
0.5
100
AcDbArc
 50
180.0
 51
270.0
  0
ARC
  5
431FB
102
{ACAD_REACTORS
330
4343F
102
}
330
2
100
AcDbEntity
  8
0
  6
Continuous
100
AcDbCircle
 10
90.35670614571051
 20
177.6752452398806
 30
0.0
 40
0.5
100
AcDbArc
 50
90.0
 51
180.0
  0
LINE
  5
431FC
102
{ACAD_REACTORS
330
4343F
102
}
330
2
100
AcDbEntity
  8
0
 62
     7
100
AcDbLine
 10
90.25670614571197
 20
168.9252452398806
 30
0.0
 11
90.25670614571197
 21
169.2324249168533
 31
0.0
  0
LINE
  5
431FD
102
{ACAD_REACTORS
330
4343F
102
}
330
2
100
AcDbEntity
  8
0
  6
Continuous
100
AcDbLine
 10
89.41962265817153
 20
168.3252452398802
 30
0.0
 11
89.65670614571161
 21
168.3252452398802
 31
0.0
  0
ARC
  5
431FE
102
{ACAD_REACTORS
330
4343F
102
}
330
2
100
AcDbEntity
  8
0
  6
Continuous
100
AcDbCircle
 10
89.65670614571161
 20
168.9252452398806
 30
0.0
 40
0.6
100
AcDbArc
 50
270.0
 51
0.0
  0
LINE
  5
431FF
102
{ACAD_REACTORS
330
4343F
102
}
330
2
100
AcDbEntity
  8
0
  6
Continuous
100
AcDbLine
 10
89.85670614571052
 20
169.9252452398806
 30
0.0
 11
90.25670614571197
 21
169.2324249168533
 31
0.0
  0
LINE
  5
43200
102
{ACAD_REACTORS
330
4343F
102
}
330
2
100
AcDbEntity
  8
0
  6
Continuous
100
AcDbLine
 10
88.85670614571052
 20
168.6502452398809
 30
0.0
 11
89.41962265817153
 21
168.3252452398802
 31
0.0
  0
LINE
  5
43201
330
2
100
AcDbEntity
  8
0
  6
Continuous
100
AcDbLine
 10
89.41962265817153
 20
124.5252452398809
 30
0.0
 11
89.65670614571161
 21
124.5252452398809
 31
0.0
  0
ARC
  5
43202
330
2
100
AcDbEntity
  8
0
  6
Continuous
100
AcDbCircle
 10
89.65670614571161
 20
123.9252452398806
 30
0.0
 40
0.6
100
AcDbArc
 50
70.5287793654379
 51
90.0
  0
LINE
  5
43203
330
2
100
AcDbEntity
  8
0
  6
Continuous
100
AcDbLine
 10
88.85670614571052
 20
124.2002452398802
 30
0.0
 11
89.41962265817153
 21
124.5252452398809
 31
0.0
  0
LINE
  5
43204
330
2
100
AcDbEntity
  8
0
  6
Continuous
 62
     0
100
AcDbLine
 10
89.41962265817153
 20
124.5252452398809
 30
0.0
 11
89.41962265817153
 21
146.4252452398806
 31
0.0
  0
LINE
  5
43205
330
2
100
AcDbEntity
  8
0
  6
Continuous
100
AcDbLine
 10
92.55670614571124
 20
138.2337452398798
 30
0.0
 11
89.85670614571052
 21
135.5337452398809
 31
0.0
  0
HATCH
  5
4343F
330
2
100
AcDbEntity
  8
0
  6
Continuous
 62
     4
100
AcDbHatch
 10
0.0
 20
0.0
 30
0.0
210
0.0
220
0.0
230
1.0
  2
ANSI31
 70
     0
 71
     1
 91
        4
 92
        7
 72
     1
 73
     1
 93
       32
 10
195.3941064915842
 20
167.467983073073
 42
0.0
 10
110.4201157379294
 20
168.6162802453882
 42
0.0
 10
107.9067061457098
 20
171.1902452398798
 42
0.0
 10
107.9067061457105
 20
177.3752452398811
 42
0.414213562373181
 10
107.1067061457105
 20
178.1752452398813
 42
0.0
 10
103.8474903143542
 20
178.1752452398824
 42
0.2679491924312362
 10
103.4144776124618
 20
177.9252452398824
 42
0.0
 10
101.9504061457099
 20
175.3893990735538
 42
0.0
 10
101.9504061457118
 20
174.5752452398802
 42
0.0
 10
98.11500614571002
 20
174.5752452398802
 42
0.0
 10
98.11500614571187
 20
175.3893990735538
 42
0.0
 10
96.65093467896008
 20
177.9252452398821
 42
0.2679491924314339
 10
96.21792197706744
 20
178.1752452398824
 42
0.0
 10
90.35670614571024
 20
178.1752452398806
 42
0.414213562372937
 10
89.85670614571052
 20
177.6752452398806
 42
0.0
 10
89.85670614571052
 20
169.9252452398806
 42
0.0
 10
90.25670614571197
 20
169.2324249168533
 42
0.0
 10
90.2567061457116
 20
168.9252452398806
 42
-0.4142135623730951
 10
89.65670614571161
 20
168.3252452398806
 42
0.0
 10
89.41962265817153
 20
168.3252452398802
 42
0.0
 10
88.85670614571052
 20
168.6502452398809
 42
0.0
 10
22.12812850621231
 20
158.9189949686989
 42
0.3724076148657612
 10
20.60670614571078
 20
157.1596053259792
 42
0.0
 10
20.60670614571073
 20
155.5752452398801
 42
0.0
 10
22.33875695328048
 20
154.5752452398802
 42
0.0
 10
28.00670614571199
 20
154.575245239882
 42
0.0
 10
28.09406801471105
 20
154.4252452398806
 42
0.0
 10
50.60670614571051
 20
154.4252452398824
 42
0.0
 10
52.42630920694125
 20
153.4252452398824
 42
0.0
 10
65.60670614571053
 20
153.4252452398824
 42
0.0
 10
66.1840564148696
 20
152.4252452399352
 42
0.0
 10
191.363417037234
 20
152.4252452399061
 42
0.0
 97
       32
330
42B8F
330
42B84
330
42B57
330
42B59
330
42B52
330
42B51
330
42B50
330
42B4D
330
42B48
330
42B4A
330
42B4C
330
42B49
330
42B47
330
431FB
330
431F7
330
431FF
330
431FC
330
431FE
330
431FD
330
43200
330
42B27
330
42B28
330
42B2D
330
42B38
330
42B29
330
42B31
330
42B30
330
42B35
330
42B2F
330
42B7B
330
42B7F
330
42B90
 92
       23
 72
     0
 73
     1
 93
        4
 10
50.6067061457105
 20
154.4252452398824
 10
28.09406801471101
 20
154.4252452398806
 10
28.67648047469799
 20
153.4252452398824
 10
50.60670614571051
 20
153.4252452398824
 97
        3
330
42B31
330
42B2F
330
42B36
 92
        7
 72
     0
 73
     1
 93
       22
 10
275.15670614571
 20
159.3752452398831
 10
278.4167061457103
 20
159.3752452398831
 10
278.4167061457103
 20
159.1252452398831
 10
292.8752959841969
 20
159.1252452398831
 10
293.2217061457095
 20
159.3252452398824
 10
293.6567061457103
 20
159.7602452398822
 10
293.6567061457103
 20
161.550245239886
 10
293.5897188476007
 20
161.550245239886
 10
293.1567061457105
 20
162.3002452398824
 10
293.5897188476007
 20
163.0502452398788
 10
293.6567061457101
 20
163.0502452398788
 10
293.65670614571
 20
164.9752452398826
 10
293.1567061456409
 20
165.4752452399517
 10
242.8567061465116
 20
165.4752452399517
 10
198.0224957615211
 20
166.0811129478398
 10
194.3634170372274
 20
152.4252452398815
 10
244.6112950799189
 20
152.4252452398697
 10
245.5567061457106
 20
150.7877452398817
 10
254.8638858226834
 20
150.787745239882
 10
255.5567061457105
 20
151.1877452398822
 10
272.3060391915872
 20
151.1877452398831
 10
275.15670614571
 20
156.1252452398831
 97
       21
330
42AF3
330
42AF0
330
42AF2
330
42AFB
330
42AEE
330
42AED
330
42B09
330
42B08
330
42B05
330
42B06
330
42AF1
330
42B82
330
42B8E
330
42B91
330
42B7D
330
42AF5
330
42AF6
330
42B0C
330
42AEA
330
42AEB
330
42AF4
 92
       23
 72
     0
 73
     1
 93
        4
 10
272.3060391915872
 20
151.1877452398831
 10
255.5567061457105
 20
151.1877452398822
 10
255.5567061457105
 20
150.787745239882
 10
272.0750990839111
 20
150.7877452398826
 97
        3
330
42AE9
330
42AF6
330
42AEB
 75
     1
 76
     1
 52
0.0
 41
1.0
 77
     0
 78
     1
 53
45.0
 43
0.0
 44
0.0
 45
-2.245064030267287
 46
2.245064030267288
 79
     0
 47
0.0322912357856786
 98
        4
 10
142.3609155929753
 20
162.9877621073314
 10
46.75909370500971
 20
154.3134319020018
 10
263.6095834786188
 20
158.9295692806722
 10
264.5730019575631
 20
151.0196859645962
1001
GRADIENTCOLOR1ACI
1070
     5
1001
GRADIENTCOLOR2ACI
1070
     2
1001
ACAD
1010
0.0
1020
0.0
1030
0.0
  0
LINE
  5
434A5
330
2
100
AcDbEntity
  8
0
  6
Continuous
 62
     3
100
AcDbLine
 10
242.8567061457105
 20
126.9357593333379
 30
0.0
 11
242.8567061457105
 21
83.23019246704655
 31
0.0
  0
MTEXT
  5
434A6
330
2
100
AcDbEntity
  8
0
  6
Continuous
 62
     2
100
AcDbMText
 10
242.562892212563
 20
80.74861874266606
 30
0.0
 40
3.0
 41
0.0
 46
0.0
 71
     5
 72
     1
  1
10.0
 73
     1
 44
1.0
  0
VIEWPORT
  5
2C7EC
102
{ACAD_XDICTIONARY
360
2C7ED
102
}
330
1B
100
AcDbEntity
 67
     1
  8
0
  6
Continuous
 62
     7
100
AcDbViewport
 10
212.4908200734394
 20
97.5
 30
0.0
 40
464.9816401468789
 41
210.0
 68
     1
 69
     1
 12
212.4908200734394
 22
97.5
 13
0.0
 23
0.0
 14
2.0
 24
2.0
 15
2.0
 25
2.0
 16
0.0
 26
0.0
 36
1.0
 17
0.0
 27
0.0
 37
0.0
 42
50.0
 43
0.0
 44
0.0
 45
210.0
 50
0.0
 51
0.0
 72
  1000
 90
   823328
  1

281
     0
 71
     1
 74
     0
110
0.0
120
0.0
130
0.0
111
1.0
121
0.0
131
0.0
112
0.0
122
1.0
132
0.0
 79
     0
146
0.0
170
     0
 61
     5
348
2E
292
     1
282
     1
141
0.0
142
0.0
 63
   250
421
  3355443
  0
ENDSEC
  0
SECTION
  2
OBJECTS
  0
DICTIONARY
  5
B
330
0
100
AcDbDictionary
281
     1
  3
ACAD_CIP_PREVIOUS_PRODUCT_INFO
350
BE4
  3
ACAD_COLOR
350
3F
  3
ACAD_DETAILVIEWSTYLE
350
BDC
  3
ACAD_GROUP
350
3A
  3
ACAD_LAYOUT
350
17
  3
ACAD_MATERIAL
350
D
  3
ACAD_MLEADERSTYLE
350
42
  3
ACAD_MLINESTYLE
350
3B
  3
ACAD_PLOTSETTINGS
350
3C
  3
ACAD_PLOTSTYLENAME
350
A
  3
ACAD_SCALELIST
350
40
  3
ACAD_SECTIONVIEWSTYLE
350
BDA
  3
ACAD_TABLESTYLE
350
41
  3
ACAD_VISUALSTYLE
350
2F
  3
ACDB_RECOMPOSE_DATA
350
43528
  3
AcDbVariableDictionary
350
BB8
  3
AEC_PROPERTY_SET_DEFS
350
24C9
  0
DICTIONARY
  5
31
330
2C
100
AcDbDictionary
280
     1
281
     1
  0
DICTIONARY
  5
22
330
21
100
AcDbDictionary
280
     1
281
     1
  3
ACAD_LAYERSTATES
360
23
  0
DICTIONARY
  5
7
330
6
100
AcDbDictionary
280
     1
281
     1
  3
ADSK_XREC_LAYER_RECONCILED
360
8
  0
DICTIONARY
  5
3
330
2
100
AcDbDictionary
280
     1
281
     1
  3
ACAD_SORTENTS
360
BB0
  0
DICTIONARY
  5
2C7ED
330
2C7EC
100
AcDbDictionary
280
     1
281
     1
  3
ASDK_XREC_ANNOTATION_SCALE_INFO
360
2C7EE
  0
XRECORD
  5
BE4
102
{ACAD_REACTORS
330
B
102
}
330
B
100
AcDbXrecord
280
     1
300
ACD
300
2014
300
ACD_F_S
  0
DICTIONARY
  5
3F
102
{ACAD_REACTORS
330
B
102
}
330
B
100
AcDbDictionary
281
     1
  0
DICTIONARY
  5
BDC
102
{ACAD_REACTORS
330
B
102
}
330
B
100
AcDbDictionary
281
     1
  3
Imperial24
350
283CD
  3
Metric50
350
BDD
  0
DICTIONARY
  5
3A
102
{ACAD_REACTORS
330
B
102
}
330
B
100
AcDbDictionary
281
     1
  0
DICTIONARY
  5
17
102
{ACAD_REACTORS
330
B
102
}
330
B
100
AcDbDictionary
281
     1
  3
Model
350
16
  3
배치1
350
1E
  0
DICTIONARY
  5
D
102
{ACAD_REACTORS
330
B
102
}
330
B
100
AcDbDictionary
281
     1
  3
ByBlock
350
3E
  3
ByLayer
350
3D
  3
Global
350
C
  0
DICTIONARY
  5
42
102
{ACAD_REACTORS
330
B
102
}
330
B
100
AcDbDictionary
281
     1
  3
Standard
350
BD9
  0
DICTIONARY
  5
3B
102
{ACAD_REACTORS
330
B
102
}
330
B
100
AcDbDictionary
281
     1
  3
Standard
350
43
  0
DICTIONARY
  5
3C
102
{ACAD_REACTORS
330
B
102
}
330
B
100
AcDbDictionary
281
     1
  0
ACDBDICTIONARYWDFLT
  5
A
102
{ACAD_REACTORS
330
B
102
}
330
B
100
AcDbDictionary
281
     1
  3
Normal
350
9
100
AcDbDictionaryWithDefault
340
9
  0
DICTIONARY
  5
40
102
{ACAD_REACTORS
330
B
102
}
330
B
100
AcDbDictionary
281
     1
  3
A0
350
48
  3
A1
350
49
  3
A2
350
4A
  3
A3
350
4B
  3
A4
350
4C
  3
A5
350
4D
  3
A6
350
4E
  3
A7
350
4F
  3
A8
350
50
  3
A9
350
51
  3
B0
350
52
  3
B1
350
53
  3
B2
350
54
  3
B3
350
55
  3
B4
350
56
  3
B5
350
57
  3
B6
350
58
  0
DICTIONARY
  5
BDA
102
{ACAD_REACTORS
330
B
102
}
330
B
100
AcDbDictionary
281
     1
  3
Imperial24
350
283CC
  3
Metric50
350
BDB
  0
DICTIONARY
  5
41
102
{ACAD_REACTORS
330
B
102
}
330
B
100
AcDbDictionary
281
     1
  3
Standard
350
44
  0
DICTIONARY
  5
2F
102
{ACAD_REACTORS
330
B
102
}
330
B
100
AcDbDictionary
281
     1
  3
2dWireframe
350
2E
  3
3D Hidden
350
1A64
  3
3dWireframe
350
47
  3
Basic
350
BC7
  3
Brighten
350
BCC
  3
ColorChange
350
BD0
  3
Conceptual
350
BCA
  3
Dim
350
BCB
  3
EdgeColorOff
350
BD8
  3
Facepattern
350
BCF
  3
Flat
350
BC3
  3
FlatWithEdges
350
BC4
  3
Gouraud
350
BC5
  3
GouraudWithEdges
350
BC6
  3
Hidden
350
BC9
  3
JitterOff
350
BD6
  3
Linepattern
350
BCE
  3
OverhangOff
350
BD7
  3
Realistic
350
46
  3
Shaded
350
BD5
  3
Shaded with edges
350
BD4
  3
Shades of Gray
350
BD1
  3
Sketchy
350
BD2
  3
Thicken
350
BCD
  3
Wireframe
350
BC8
  3
X-Ray
350
BD3
  0
XRECORD
  5
43528
102
{ACAD_REACTORS
330
B
102
}
330
B
100
AcDbXrecord
280
     1
 90
        1
330
44
330
BDB
330
BDD
330
283CC
330
283CD
  0
DICTIONARY
  5
BB8
102
{ACAD_REACTORS
330
B
102
}
330
B
100
AcDbDictionary
281
     1
  3
CANNOSCALE
350
BBE
  3
CMLEADERSTYLE
350
BBA
  3
CTABLESTYLE
350
BB9
  3
CVIEWDETAILSTYLE
350
BBB
  3
CVIEWSECTIONSTYLE
350
BBC
  3
DIMASSOC
350
C3B
  3
HIDETEXT
350
C39
  3
HPCOLOR
350
FF3
  3
INDEXCTL
350
C38
  3
LAYEREVAL
350
BC0
  3
LAYERNOTIFY
350
BC1
  3
LIGHTINGUNITS
350
BBF
  3
MSLTSCALE
350
BBD
  3
SOLIDHIST
350
C3C
  3
SORTENTS
350
C37
  0
DICTIONARY
  5
24C9
102
{ACAD_REACTORS
330
B
102
}
330
B
100
AcDbDictionary
281
     1
  0
DICTIONARY
  5
23
102
{ACAD_REACTORS
330
22
102
}
330
22
100
AcDbDictionary
281
     1
  0
XRECORD
  5
8
102
{ACAD_REACTORS
330
7
102
}
330
7
100
AcDbXrecord
280
     1
290
     1
  0
SORTENTSTABLE
  5
BB0
102
{ACAD_REACTORS
330
3
102
}
330
3
100
AcDbSortentsTable
330
2
331
3C9DE
  5
3C9DE
331
3CA1D
  5
3CA1D
331
3C9DA
  5
3C9DA
331
3CA19
  5
3CA19
331
3C9D6
  5
3C9D6
331
3CA15
  5
3CA15
331
3C9D2
  5
3C9D2
331
3CA11
  5
3CA11
331
42B57
  5
42B7B
331
42B53
  5
42B58
331
42B14
  5
42B19
331
42B10
  5
42B15
331
42B4F
  5
42B54
331
42B0C
  5
42B11
331
42B4B
  5
42B50
331
42B08
  5
42B0D
331
426B2
  5
429E1
331
3C9CE
  5
3C9CE
331
3CA0D
  5
3CA0D
331
3CA09
  5
3CA09
331
3CA05
  5
3CA05
331
3CA01
  5
3CA01
331
42B8E
  5
42CBA
331
42B47
  5
42B4C
331
42B43
  5
42B48
331
42B8A
  5
42B8F
331
42B04
  5
42B09
331
42B3F
  5
42B44
331
42B82
  5
42B8A
331
42B3B
  5
42B40
331
42AF8
  5
42B05
331
429ED
  5
42AE7
331
3C9FD
  5
3C9FD
331
429E9
  5
429EC
331
42AF4
  5
42AF9
331
3C9F9
  5
3C9F9
331
429E5
  5
429E7
331
42AF0
  5
42AF5
331
429E1
  5
429E2
331
3C9F5
  5
3C9F5
331
3C9F1
  5
3C9F1
331
42B37
  5
42B3C
331
42B33
  5
42B38
331
42CB9
  5
4313B
331
42B7E
  5
42B84
331
42B2F
  5
42B34
331
42B2B
  5
42B30
331
42AEC
  5
42AF1
331
3C9ED
  5
3C9ED
331
3C9E9
  5
3C9E9
331
3CA28
  5
3CA28
331
3C9E5
  5
3C9E5
331
3CA24
  5
3CA24
331
3C9E1
  5
3C9E1
331
3CA20
  5
3CA20
331
42B27
  5
42B2C
331
43204
  5
43209
331
42B23
  5
42B28
331
43200
  5
43205
331
42B1F
  5
42B24
331
431FC
  5
43201
331
431F8
  5
431FD
331
42B1B
  5
42B20
331
42B5A
  5
42B7E
331
3C9DD
  5
3C9DD
331
3CA1C
  5
3CA1C
331
3C9D9
  5
3C9D9
331
3CA18
  5
3CA18
331
3C9D5
  5
3C9D5
331
3CA14
  5
3CA14
331
3C9D1
  5
3C9D1
331
3CA10
  5
3CA10
331
42B56
  5
42B6B
331
42B17
  5
42B1C
331
42B13
  5
42B18
331
42B52
  5
42B57
331
42B0F
  5
42B14
331
42B4E
  5
42B53
331
42B0B
  5
42B10
331
42B4A
  5
42B4F
331
42B91
  5
4313A
331
3C9CD
  5
3C9CD
331
3CA0C
  5
3CA0C
331
3CA08
  5
3CA08
331
3CA04
  5
3CA04
331
3CA00
  5
3CA00
331
42B46
  5
42B4B
331
42B8D
  5
42CB9
331
42B07
  5
42B0C
331
42B42
  5
42B47
331
42B89
  5
42B8E
331
4343F
  5
42AED
331
42B3E
  5
42B43
331
42B81
  5
42B89
331
42AFB
  5
42B08
331
42B3A
  5
42B3F
331
429EC
  5
42AE6
331
3C9FC
  5
3C9FC
331
429E8
  5
429EB
331
42AF7
  5
42B04
331
3C9F8
  5
3C9F8
331
42AF3
  5
42AF8
331
3C9F4
  5
3C9F4
331
3C9F0
  5
3C9F0
331
42B36
  5
42B3B
331
42B32
  5
42B37
331
42B7D
  5
42B83
331
42B2E
  5
42B33
331
42B2A
  5
42B2F
331
42AEF
  5
42AF4
331
42AEB
  5
42AF0
331
42AE7
  5
42AEB
331
3C9EC
  5
3C9EC
331
3CA2B
  5
3CA2B
331
3C9E8
  5
3C9E8
331
3CA27
  5
3CA27
331
3C9E4
  5
3C9E4
331
3CA23
  5
3CA23
331
3C9E0
  5
3C9E0
331
43203
  5
43208
331
42B26
  5
42B2B
331
42B22
  5
42B27
331
431FF
  5
43204
331
42B1E
  5
42B23
331
431FB
  5
43200
331
42B1A
  5
42B1F
331
42B59
  5
42B7D
331
3CA1F
  5
3CA1F
331
3C9DC
  5
3C9DC
331
3CA1B
  5
3CA1B
331
3C9D8
  5
3C9D8
331
3CA17
  5
3CA17
331
3C9D4
  5
3C9D4
331
3CA13
  5
3CA13
331
3C9D0
  5
3C9D0
331
431F7
  5
431FC
331
42B55
  5
42B5A
331
42B16
  5
42B1B
331
42B51
  5
42B56
331
42B12
  5
42B17
331
42B0E
  5
42B13
331
42B4D
  5
42B52
331
42B90
  5
43139
331
42B0A
  5
42B0F
331
42B49
  5
42B4E
331
3CA0F
  5
3CA0F
331
3CA0B
  5
3CA0B
331
426B0
  5
426B2
331
3CA07
  5
3CA07
331
3CA03
  5
3CA03
331
42B45
  5
42B4A
331
42B8C
  5
42B91
331
42B06
  5
42B0B
331
42B41
  5
42B46
331
42B88
  5
42B8D
331
42B84
  5
42B8C
331
42B3D
  5
42B42
331
42AFA
  5
42B07
331
42B39
  5
42B3E
331
3C9FF
  5
3C9FF
331
429EB
  5
429EE
331
42AF6
  5
42AFB
331
3C9FB
  5
3C9FB
331
429E7
  5
429EA
331
3C9F7
  5
3C9F7
331
42AF2
  5
42AF7
331
3C9F3
  5
3C9F3
331
42B35
  5
42B3A
331
42B31
  5
42B36
331
42B7C
  5
42B82
331
42B2D
  5
42B32
331
42B29
  5
42B2E
331
42AEE
  5
42AF3
331
3C9EF
  5
3C9EF
331
42AEA
  5
42AEF
331
3C9EB
  5
3C9EB
331
3CA2A
  5
3CA2A
331
42AE6
  5
42AEA
331
3C9E7
  5
3C9E7
331
3CA26
  5
3CA26
331
3C9E3
  5
3C9E3
331
3CA22
  5
3CA22
331
42B25
  5
42B2A
331
43202
  5
43207
331
431FE
  5
43203
331
42B21
  5
42B26
331
42B1D
  5
42B22
331
431FA
  5
431FF
331
42B19
  5
42B1E
331
42B58
  5
42B7C
331
3C9DF
  5
3C9DF
331
3CA1E
  5
3CA1E
331
3C9DB
  5
3C9DB
331
3CA1A
  5
3CA1A
331
3C9D7
  5
3C9D7
331
3CA16
  5
3CA16
331
3C9D3
  5
3C9D3
331
3CA12
  5
3CA12
331
42B54
  5
42B59
331
42B15
  5
42B1A
331
42B50
  5
42B55
331
42B11
  5
42B16
331
42B0D
  5
42B12
331
42B4C
  5
42B51
331
42B09
  5
42B0E
331
42B48
  5
42B4D
331
3C9CF
  5
3C9CF
331
3CA0E
  5
3CA0E
331
426AF
  5
426B0
331
3CA0A
  5
3CA0A
331
3CA06
  5
3CA06
331
3CA02
  5
3CA02
331
42B8F
  5
43138
331
42B44
  5
42B49
331
42B8B
  5
42B90
331
42B05
  5
42B0A
331
42B40
  5
42B45
331
42B83
  5
42B8B
331
42B3C
  5
42B41
331
42AF9
  5
42B06
331
42B38
  5
42B3D
331
429EE
  5
42AE9
331
3C9FE
  5
3C9FE
331
429EA
  5
429ED
331
42AF5
  5
42AFA
331
429E6
  5
429E9
331
3C9FA
  5
3C9FA
331
42AF1
  5
42AF6
331
3C9F6
  5
3C9F6
331
429E2
  5
429E6
331
3C9F2
  5
3C9F2
331
42CBA
  5
4313C
331
42B34
  5
42B39
331
42B30
  5
42B35
331
42B7F
  5
42B88
331
42B7B
  5
42B81
331
42B2C
  5
42B31
331
42B28
  5
42B2D
331
42AED
  5
42AF2
331
3C9EE
  5
3C9EE
331
42AE9
  5
42AEE
331
3C9EA
  5
3C9EA
331
3CA29
  5
3CA29
331
3C9E6
  5
3C9E6
331
3CA25
  5
3CA25
331
3C9E2
  5
3C9E2
331
3CA21
  5
3CA21
331
43205
  5
4320A
331
42B24
  5
42B29
331
42B6B
  5
42B7F
331
43201
  5
43206
331
431FD
  5
43202
331
42B20
  5
42B25
331
42B1C
  5
42B21
331
431F9
  5
431FE
331
42B18
  5
42B1D
  0
XRECORD
  5
2C7EE
102
{ACAD_REACTORS
330
2C7ED
102
}
330
2C7ED
100
AcDbXrecord
280
     1
 90
        1
340
48
  0
ACDBDETAILVIEWSTYLE
  5
283CD
102
{ACAD_XDICTIONARY
360
43526
102
}
102
{ACAD_REACTORS
330
BDC
102
}
330
BDC
100
AcDbModelDocViewStyle
 70
     0
  3
Imperial24
290
     0
100
AcDbDetailViewStyle
 70
     0
 71
     0
 90
        3
 71
     1
340
25
 62
   256
 40
0.24
340
0
 62
   256
 40
0.24
300

 40
0.36
280
     3
 71
     2
340
14
 90
       25
 62
   256
 71
     3
340
25
 62
   256
 40
0.24
 90
        1
 40
0.75
 90
        1
300
%<\AcVar ViewType \f "%tc1">% %<\AcVar ViewDetailId>%\PSCALE %<\AcVar ViewScale \f "%sn">%
 71
     4
340
14
 90
       25
 62
   256
340
14
 90
       25
 62
   256
280
     0
  0
ACDBDETAILVIEWSTYLE
  5
BDD
102
{ACAD_XDICTIONARY
360
43522
102
}
102
{ACAD_REACTORS
330
BDC
102
}
330
BDC
100
AcDbModelDocViewStyle
 70
     0
  3
Metric50
290
     0
100
AcDbDetailViewStyle
 70
     0
 71
     0
 90
        3
 71
     1
340
25
 62
   256
 40
5.0
340
0
 62
   256
 40
5.0
300

 40
0.0
280
     1
 71
     2
340
14
 90
       25
 62
   256
 71
     3
340
25
 62
   256
 40
5.0
 90
        0
 40
15.0
 90
        1
300
%<\AcVar ViewDetailId>% (%<\AcVar ViewScale \f "%sn">%)
 71
     4
340
14
 90
       25
 62
   256
340
14
 90
       25
 62
   256
280
     0
  0
LAYOUT
  5
16
102
{ACAD_XDICTIONARY
360
18
102
}
102
{ACAD_REACTORS
330
17
102
}
330
17
100
AcDbPlotSettings
  1

  2
DWG To PDF.pc3
  4
ISO_expand_A4_(297.00_x_210.00_MM)
  6

 40
5.793749809265136
 41
10.79374980926513
 42
5.79376220703125
 43
10.79374694824219
 44
297.0
 45
210.0
 46
10.74179700476176
 47
0.0
 48
214.2303289092835
 49
-5.650030662565313
140
426.8811481846322
141
146.1562857013982
142
1.0
143
0.8057125389846563
 70
 11956
 72
     1
 73
     0
 74
     4
  7
ksm0910.ctb
 75
     0
147
1.241137442468229
 76
     0
 77
     2
 78
   300
148
-214.2303289092835
149
5.650030662565313
100
AcDbLayout
  1
Model
 70
     1
 71
     0
 10
0.0
 20
0.0
 11
12.0
 21
9.0
 12
0.0
 22
0.0
 32
0.0
 14
0.0
 24
0.0
 34
0.0
 15
0.0
 25
0.0
 35
0.0
146
0.0
 13
0.0
 23
0.0
 33
0.0
 16
1.0
 26
0.0
 36
0.0
 17
0.0
 27
1.0
 37
0.0
 76
     0
330
2
331
2D
1001
ACAD_PSEXT
1000
DWG To PDF.pc3
1000
DWG To PDF
1000
파일
1000

1070
     0
  0
LAYOUT
  5
1E
102
{ACAD_XDICTIONARY
360
1F
102
}
102
{ACAD_REACTORS
330
17
102
}
330
17
100
AcDbPlotSettings
  1

  2
none_device
  4
ISO_A4_(210.00_x_297.00_MM)
  6

 40
7.5
 41
20.0
 42
7.5
 43
20.0
 44
210.0
 45
297.0
 46
0.0
 47
0.0
 48
0.0
 49
0.0
140
0.0
141
0.0
142
1.0
143
1.0
 70
   688
 72
     1
 73
     1
 74
     5
  7
ksm0910.ctb
 75
    16
147
1.0
 76
     0
 77
     2
 78
   300
148
0.0
149
0.0
100
AcDbLayout
  1
배치1
 70
     1
 71
     1
 10
-20.0
 20
-7.5
 11
277.0
 21
202.5
 12
0.0
 22
0.0
 32
0.0
 14
1.000000000000000E+20
 24
1.000000000000000E+20
 34
1.000000000000000E+20
 15
-1.000000000000000E+20
 25
-1.000000000000000E+20
 35
-1.000000000000000E+20
146
0.0
 13
0.0
 23
0.0
 33
0.0
 16
1.0
 26
0.0
 36
0.0
 17
0.0
 27
1.0
 37
0.0
 76
     0
330
1B
331
2C7EC
1001
ACAD_PSEXT
1000
없음
1000
없음
1000
해당 없음
1000
배치가 새로운 플로터 구성을 선택할 때까지 플롯되지 않습니다.
1070
     0
  0
MATERIAL
  5
3E
102
{ACAD_REACTORS
330
D
102
}
330
D
100
AcDbMaterial
  1
ByBlock
 94
       63
  0
MATERIAL
  5
3D
102
{ACAD_REACTORS
330
D
102
}
330
D
100
AcDbMaterial
  1
ByLayer
 94
       63
  0
MATERIAL
  5
C
102
{ACAD_XDICTIONARY
360
E
102
}
102
{ACAD_REACTORS
330
D
102
}
330
D
100
AcDbMaterial
  1
Global
 43
0.0007999999797903
 43
0.0
 43
0.0
 43
0.0
 43
0.0
 43
0.0007999999797903
 43
0.0
 43
0.0
 43
0.0
 43
0.0
 43
1.0
 43
0.0
 43
0.0
 43
0.0
 43
0.0
 43
1.0
 49
0.0007999999797903
 49
0.0
 49
0.0
 49
0.0
 49
0.0
 49
0.0007999999797903
 49
0.0
 49
0.0
 49
0.0
 49
0.0
 49
1.0
 49
0.0
 49
0.0
 49
0.0
 49
0.0
 49
1.0
142
0.0007999999797903
142
0.0
142
0.0
142
0.0
142
0.0
142
0.0007999999797903
142
0.0
142
0.0
142
0.0
142
0.0
142
1.0
142
0.0
142
0.0
142
0.0
142
0.0
142
1.0
144
0.0007999999797903
144
0.0
144
0.0
144
0.0
144
0.0
144
0.0007999999797903
144
0.0
144
0.0
144
0.0
144
0.0
144
1.0
144
0.0
144
0.0
144
0.0
144
0.0
144
1.0
 94
       63
1001
ACAD
1070
    -1
1070
     3
1070
     0
1000

1071
        0
1070
     0
  0
MLEADERSTYLE
  5
BD9
102
{ACAD_REACTORS
330
42
330
429E7
330
42B88
330
42B0E
102
}
330
42
100
AcDbMLeaderStyle
179
     2
170
     2
171
     1
172
     0
 90
        2
 40
0.0
 41
0.0
173
     1
 91
-1023410173
340
28
 92
       -2
290
     1
 42
2.0
291
     1
 43
0.36
  3
Standard
 44
4.0
300

342
25
174
     1
178
     6
175
     1
176
     0
 93
-1023410174
 45
3.0
292
     0
297
     0
 46
4.0
 94
-1056964608
 47
1.0
 49
1.0
140
1.0
293
     1
141
0.0
294
     1
177
     0
142
1.0
295
     0
296
     0
143
0.125
271
     0
272
     9
273
     9
298
     1
  0
MLINESTYLE
  5
43
102
{ACAD_REACTORS
330
3B
102
}
330
3B
100
AcDbMlineStyle
  2
STANDARD
 70
     0
  3

 62
   256
 51
90.0
 52
90.0
 71
     2
 49
0.5
 62
   256
  6
BYLAYER
 49
-0.5
 62
   256
  6
BYLAYER
  0
ACDBPLACEHOLDER
  5
9
102
{ACAD_REACTORS
330
A
102
}
330
A
  0
SCALE
  5
48
102
{ACAD_REACTORS
330
40
102
}
330
40
100
AcDbScale
 70
     0
300
1:1
140
1.0
141
1.0
290
     1
  0
SCALE
  5
49
102
{ACAD_REACTORS
330
40
102
}
330
40
100
AcDbScale
 70
     0
300
1:2
140
1.0
141
2.0
290
     0
  0
SCALE
  5
4A
102
{ACAD_REACTORS
330
40
102
}
330
40
100
AcDbScale
 70
     0
300
1:4
140
1.0
141
4.0
290
     0
  0
SCALE
  5
4B
102
{ACAD_REACTORS
330
40
102
}
330
40
100
AcDbScale
 70
     0
300
1:5
140
1.0
141
5.0
290
     0
  0
SCALE
  5
4C
102
{ACAD_REACTORS
330
40
102
}
330
40
100
AcDbScale
 70
     0
300
1:8
140
1.0
141
8.0
290
     0
  0
SCALE
  5
4D
102
{ACAD_REACTORS
330
40
102
}
330
40
100
AcDbScale
 70
     0
300
1:10
140
1.0
141
10.0
290
     0
  0
SCALE
  5
4E
102
{ACAD_REACTORS
330
40
102
}
330
40
100
AcDbScale
 70
     0
300
1:16
140
1.0
141
16.0
290
     0
  0
SCALE
  5
4F
102
{ACAD_REACTORS
330
40
102
}
330
40
100
AcDbScale
 70
     0
300
1:20
140
1.0
141
20.0
290
     0
  0
SCALE
  5
50
102
{ACAD_REACTORS
330
40
102
}
330
40
100
AcDbScale
 70
     0
300
1:30
140
1.0
141
30.0
290
     0
  0
SCALE
  5
51
102
{ACAD_REACTORS
330
40
102
}
330
40
100
AcDbScale
 70
     0
300
1:40
140
1.0
141
40.0
290
     0
  0
SCALE
  5
52
102
{ACAD_REACTORS
330
40
102
}
330
40
100
AcDbScale
 70
     0
300
1:50
140
1.0
141
50.0
290
     0
  0
SCALE
  5
53
102
{ACAD_REACTORS
330
40
102
}
330
40
100
AcDbScale
 70
     0
300
1:100
140
1.0
141
100.0
290
     0
  0
SCALE
  5
54
102
{ACAD_REACTORS
330
40
102
}
330
40
100
AcDbScale
 70
     0
300
2:1
140
2.0
141
1.0
290
     0
  0
SCALE
  5
55
102
{ACAD_REACTORS
330
40
102
}
330
40
100
AcDbScale
 70
     0
300
4:1
140
4.0
141
1.0
290
     0
  0
SCALE
  5
56
102
{ACAD_REACTORS
330
40
102
}
330
40
100
AcDbScale
 70
     0
300
8:1
140
8.0
141
1.0
290
     0
  0
SCALE
  5
57
102
{ACAD_REACTORS
330
40
102
}
330
40
100
AcDbScale
 70
     0
300
10:1
140
10.0
141
1.0
290
     0
  0
SCALE
  5
58
102
{ACAD_REACTORS
330
40
102
}
330
40
100
AcDbScale
 70
     0
300
100:1
140
100.0
141
1.0
290
     0
  0
ACDBSECTIONVIEWSTYLE
  5
283CC
102
{ACAD_XDICTIONARY
360
43524
102
}
102
{ACAD_REACTORS
330
BDA
102
}
330
BDA
100
AcDbModelDocViewStyle
 70
     0
  3
Imperial24
290
     0
100
AcDbSectionViewStyle
 70
     0
 71
     0
 90
       78
 71
     1
340
25
 62
   256
 40
0.24
340
0
340
0
 62
   256
 40
0.24
300
I, O, Q, S, X, Z
 40
0.48
 90
        3
 40
0.18
 90
        1
 71
     2
340
14
 90
       25
 62
   256
340
14
 90
       50
 62
   256
 40
0.24
 40
0.0
 40
0.24
 71
     3
340
25
 62
   256
 40
0.24
 90
        1
 40
0.75
 90
        1
300
%<\AcVar ViewType \f "%tc1">% %<\AcVar ViewSectionStartId>%-%<\AcVar ViewSectionEndId>%\PSCALE %<\AcVar ViewScale \f "%sn">%
 71
     4
 62
   256
 62
   257
300
ANSI31
 40
1.0
 90
        0
290
     0
290
     0
 90
        6
 40
0.0
 40
1.570796326794896
 40
0.2617993877991494
 40
1.308996938995747
 40
-0.2617993877991494
 40
1.832595714594046
  0
ACDBSECTIONVIEWSTYLE
  5
BDB
102
{ACAD_XDICTIONARY
360
43520
102
}
102
{ACAD_REACTORS
330
BDA
102
}
330
BDA
100
AcDbModelDocViewStyle
 70
     0
  3
Metric50
290
     0
100
AcDbSectionViewStyle
 70
     0
 71
     0
 90
      102
 71
     1
340
25
 62
   256
 40
5.0
340
0
340
0
 62
   256
 40
5.0
300
I, O, Q, S, X, Z
 40
10.0
 90
        0
 40
2.5
 90
        0
 71
     2
340
14
 90
       25
 62
   256
340
14
 90
       50
 62
   256
 40
5.0
 40
2.5
 40
5.0
 71
     3
340
25
 62
   256
 40
5.0
 90
        0
 40
15.0
 90
        1
300
%<\AcVar ViewSectionStartId>%-%<\AcVar ViewSectionEndId>% (%<\AcVar ViewScale \f "%sn">%)
 71
     4
 62
   256
 62
   257
300
ANSI31
 40
1.0
 90
        0
290
     0
290
     0
 90
        6
 40
0.0
 40
1.570796326794896
 40
0.2617993877991494
 40
1.308996938995747
 40
-0.2617993877991494
 40
1.832595714594046
  0
TABLESTYLE
  5
44
102
{ACAD_XDICTIONARY
360
45
102
}
102
{ACAD_REACTORS
330
41
102
}
330
41
100
AcDbTableStyle
280
     0
  3
Standard
 70
     0
 71
     0
 40
1.5
 41
1.5
280
     0
281
     0
  7
Standard
140
4.5
170
     2
 62
     0
 63
     7
283
     0
 90
      512
 91
        0
  1

274
    -2
284
     1
 64
     0
275
    -2
285
     1
 65
     0
276
    -2
286
     1
 66
     0
277
    -2
287
     1
 67
     0
278
    -2
288
     1
 68
     0
279
    -2
289
     1
 69
     0
  7
Standard
140
6.0
170
     5
 62
     0
 63
     7
283
     0
 90
      512
 91
        0
  1

274
    -2
284
     1
 64
     0
275
    -2
285
     1
 65
     0
276
    -2
286
     1
 66
     0
277
    -2
287
     1
 67
     0
278
    -2
288
     1
 68
     0
279
    -2
289
     1
 69
     0
  7
Standard
140
4.5
170
     5
 62
     0
 63
     7
283
     0
 90
      512
 91
        0
  1

274
    -2
284
     1
 64
     0
275
    -2
285
     1
 65
     0
276
    -2
286
     1
 66
     0
277
    -2
287
     1
 67
     0
278
    -2
288
     1
 68
     0
279
    -2
289
     1
 69
     0
  0
VISUALSTYLE
  5
2E
102
{ACAD_REACTORS
330
2F
102
}
330
2F
100
AcDbVisualStyle
  2
2dWireframe
 70
     4
177
     3
291
     0
 70
    58
 90
        0
176
     1
 90
        2
176
     1
 90
        1
176
     1
 90
        0
176
     1
 40
0.6
176
     1
 40
30.0
176
     1
 62
     7
176
     1
 90
        1
176
     1
 90
        4
176
     1
 62
     7
176
     1
 62
   257
176
     1
 90
        1
176
     1
 90
        1
176
     1
 40
1.0
176
     1
 90
        0
176
     1
 62
   257
176
     1
 40
1.0
176
     1
 90
        1
176
     1
 90
        6
176
     1
 90
        2
176
     1
 62
     7
176
     1
 90
        5
176
     1
 90
        0
176
     1
 90
        0
176
     1
290
     0
176
     1
 90
        1
176
     1
 40
0.0
176
     1
 90
        0
176
     1
290
     1
176
     1
290
     1
176
     1
290
     0
176
     1
290
     0
176
     1
290
     0
176
     1
290
     0
176
     1
290
     0
176
     1
290
     0
176
     1
290
     0
176
     1
 90
       50
176
     1
 40
0.0
176
     1
 40
1.0
176
     1
 90
        0
176
     1
 62
    18
420
        0
176
     1
 90
       50
176
     1
 90
        3
176
     1
 62
     5
420
      255
176
     1
290
     0
176
     1
 90
       50
176
     1
 90
       50
176
     1
 90
       50
176
     1
290
     0
176
     1
 90
       50
176
     1
 62
   256
176
     0
 40
1.0
176
     0
 90
        2
176
     1
  1
strokes_ogs.tif
176
     1
290
     0
176
     1
 40
1.0
176
     1
 40
1.0
176
     1
  0
VISUALSTYLE
  5
1A64
102
{ACAD_REACTORS
330
2F
102
}
330
2F
100
AcDbVisualStyle
  2
3D Hidden
 70
     6
177
     3
291
     0
 70
    58
 90
        1
176
     1
 90
        2
176
     1
 90
        2
176
     1
 90
        0
176
     1
 40
0.6
176
     1
 40
30.0
176
     1
 62
     7
176
     1
 90
        2
176
     1
 90
        2
176
     1
 62
     7
176
     1
 62
   257
176
     1
 90
        2
176
     1
 90
        1
176
     1
 40
40.0
176
     1
 90
        0
176
     1
 62
   257
176
     1
 40
1.0
176
     1
 90
        1
176
     1
 90
        6
176
     1
 90
        2
176
     1
 62
     7
176
     1
 90
        3
176
     1
 90
        0
176
     1
 90
        0
176
     1
290
     0
176
     1
 90
        1
176
     1
 40
0.0
176
     1
 90
        0
176
     1
290
     0
176
     1
290
     1
176
     1
290
     1
176
     1
290
     0
176
     1
290
     0
176
     1
290
     0
176
     1
290
     0
176
     1
290
     0
176
     1
290
     0
176
     1
 90
       50
176
     1
 40
0.0
176
     1
 40
1.0
176
     1
 90
        0
176
     1
 62
    18
420
        0
176
     1
 90
       50
176
     1
 90
        3
176
     1
 62
     5
420
      255
176
     1
290
     0
176
     1
 90
       50
176
     1
 90
       50
176
     1
 90
       50
176
     1
290
     0
176
     1
 90
       50
176
     1
 62
   256
176
     0
 40
1.0
176
     0
 90
        2
176
     1
  1
strokes_ogs.tif
176
     1
290
     0
176
     1
 40
1.0
176
     1
 40
1.0
176
     1
  0
VISUALSTYLE
  5
47
102
{ACAD_REACTORS
330
2F
102
}
330
2F
100
AcDbVisualStyle
  2
3dWireframe
 70
     5
177
     3
291
     0
 70
    58
 90
        0
176
     1
 90
        2
176
     1
 90
        1
176
     1
 90
        0
176
     1
 40
0.6
176
     1
 40
30.0
176
     1
 62
     7
176
     1
 90
        1
176
     1
 90
        4
176
     1
 62
     7
176
     1
 62
   257
176
     1
 90
        1
176
     1
 90
        1
176
     1
 40
1.0
176
     1
 90
        0
176
     1
 62
   257
176
     1
 40
1.0
176
     1
 90
        1
176
     1
 90
        6
176
     1
 90
        2
176
     1
 62
     7
176
     1
 90
        5
176
     1
 90
        0
176
     1
 90
        0
176
     1
290
     0
176
     1
 90
        1
176
     1
 40
0.0
176
     1
 90
        0
176
     1
290
     0
176
     1
290
     1
176
     1
290
     1
176
     1
290
     0
176
     1
290
     0
176
     1
290
     0
176
     1
290
     0
176
     1
290
     0
176
     1
290
     0
176
     1
 90
       50
176
     1
 40
0.0
176
     1
 40
1.0
176
     1
 90
        0
176
     1
 62
    18
420
        0
176
     1
 90
       50
176
     1
 90
        3
176
     1
 62
     5
420
      255
176
     1
290
     0
176
     1
 90
       50
176
     1
 90
       50
176
     1
 90
       50
176
     1
290
     0
176
     1
 90
       50
176
     1
 62
   256
176
     0
 40
1.0
176
     0
 90
        2
176
     1
  1
strokes_ogs.tif
176
     1
290
     0
176
     1
 40
1.0
176
     1
 40
1.0
176
     1
  0
VISUALSTYLE
  5
BC7
102
{ACAD_REACTORS
330
2F
102
}
330
2F
100
AcDbVisualStyle
  2
Basic
 70
     7
177
     3
291
     1
 70
    58
 90
        1
176
     1
 90
        0
176
     1
 90
        1
176
     1
 90
        0
176
     1
 40
0.6
176
     1
 40
30.0
176
     1
 62
     7
176
     1
 90
        0
176
     1
 90
        4
176
     1
 62
     7
176
     1
 62
   257
176
     1
 90
        1
176
     1
 90
        1
176
     1
 40
1.0
176
     1
 90
        8
176
     1
 62
     7
176
     1
 40
1.0
176
     1
 90
        1
176
     1
 90
        6
176
     1
 90
        2
176
     1
 62
     7
176
     1
 90
        5
176
     1
 90
        0
176
     1
 90
        0
176
     1
290
     0
176
     1
 90
        1
176
     1
 40
0.0
176
     1
 90
        0
176
     1
290
     0
176
     1
290
     1
176
     1
290
     1
176
     1
290
     0
176
     1
290
     0
176
     1
290
     0
176
     1
290
     0
176
     1
290
     0
176
     1
290
     0
176
     1
 90
       50
176
     1
 40
0.0
176
     1
 40
1.0
176
     1
 90
        0
176
     1
 62
    18
420
        0
176
     1
 90
       50
176
     1
 90
        3
176
     1
 62
     5
420
      255
176
     1
290
     0
176
     1
 90
       50
176
     1
 90
       50
176
     1
 90
       50
176
     1
290
     0
176
     1
 90
       50
176
     1
 62
   256
176
     0
 40
1.0
176
     0
 90
        2
176
     1
  1
strokes_ogs.tif
176
     1
290
     0
176
     1
 40
1.0
176
     1
 40
1.0
176
     1
  0
VISUALSTYLE
  5
BCC
102
{ACAD_REACTORS
330
2F
102
}
330
2F
100
AcDbVisualStyle
  2
Brighten
 70
    12
177
     3
291
     1
 70
    58
 90
        2
176
     1
 90
        2
176
     1
 90
        0
176
     1
 90
        0
176
     1
 40
0.6
176
     1
 40
30.0
176
     1
 62
     7
176
     1
 90
        1
176
     1
 90
        4
176
     1
 62
     7
176
     1
 62
   257
176
     1
 90
        1
176
     1
 90
        1
176
     1
 40
1.0
176
     1
 90
        8
176
     1
 62
     7
176
     1
 40
1.0
176
     1
 90
        1
176
     1
 90
        6
176
     1
 90
        2
176
     1
 62
     7
176
     1
 90
        5
176
     1
 90
        0
176
     1
 90
        0
176
     1
290
     0
176
     1
 90
        1
176
     1
 40
50.0
176
     1
 90
        0
176
     1
290
     0
176
     1
290
     1
176
     1
290
     1
176
     1
290
     0
176
     1
290
     0
176
     1
290
     0
176
     1
290
     0
176
     1
290
     0
176
     1
290
     0
176
     1
 90
       50
176
     1
 40
0.0
176
     1
 40
1.0
176
     1
 90
        0
176
     1
 62
    18
420
        0
176
     1
 90
       50
176
     1
 90
        3
176
     1
 62
     5
420
      255
176
     1
290
     0
176
     1
 90
       50
176
     1
 90
       50
176
     1
 90
       50
176
     1
290
     0
176
     1
 90
       50
176
     1
 62
   256
176
     0
 40
1.0
176
     0
 90
        2
176
     1
  1
strokes_ogs.tif
176
     1
290
     0
176
     1
 40
1.0
176
     1
 40
1.0
176
     1
  0
VISUALSTYLE
  5
BD0
102
{ACAD_REACTORS
330
2F
102
}
330
2F
100
AcDbVisualStyle
  2
ColorChange
 70
    16
177
     3
291
     1
 70
    58
 90
        2
176
     1
 90
        2
176
     1
 90
        3
176
     1
 90
        0
176
     1
 40
0.6
176
     1
 40
30.0
176
     1
 62
     8
176
     1
 90
        1
176
     1
 90
        4
176
     1
 62
     7
176
     1
 62
   257
176
     1
 90
        1
176
     1
 90
        1
176
     1
 40
1.0
176
     1
 90
        8
176
     1
 62
     8
176
     1
 40
1.0
176
     1
 90
        1
176
     1
 90
        6
176
     1
 90
        2
176
     1
 62
     7
176
     1
 90
        5
176
     1
 90
        0
176
     1
 90
        0
176
     1
290
     0
176
     1
 90
        1
176
     1
 40
0.0
176
     1
 90
        0
176
     1
290
     0
176
     1
290
     1
176
     1
290
     1
176
     1
290
     0
176
     1
290
     0
176
     1
290
     0
176
     1
290
     0
176
     1
290
     0
176
     1
290
     0
176
     1
 90
       50
176
     1
 40
0.0
176
     1
 40
1.0
176
     1
 90
        0
176
     1
 62
    18
420
        0
176
     1
 90
       50
176
     1
 90
        3
176
     1
 62
     5
420
      255
176
     1
290
     0
176
     1
 90
       50
176
     1
 90
       50
176
     1
 90
       50
176
     1
290
     0
176
     1
 90
       50
176
     1
 62
   256
176
     0
 40
1.0
176
     0
 90
        2
176
     1
  1
strokes_ogs.tif
176
     1
290
     0
176
     1
 40
1.0
176
     1
 40
1.0
176
     1
  0
VISUALSTYLE
  5
BCA
102
{ACAD_REACTORS
330
2F
102
}
330
2F
100
AcDbVisualStyle
  2
Conceptual
 70
     9
177
     3
291
     0
 70
    58
 90
        3
176
     1
 90
        2
176
     1
 90
        0
176
     1
 90
        0
176
     1
 40
0.6
176
     1
 40
30.0
176
     1
 62
     7
176
     1
 90
        2
176
     1
 90
        2
176
     1
 62
     7
176
     1
 62
   257
176
     1
 90
        1
176
     1
 90
        1
176
     1
 40
179.0
176
     1
 90
        8
176
     1
 62
     7
176
     1
 40
1.0
176
     1
 90
        1
176
     1
 90
        6
176
     1
 90
        2
176
     1
 62
     7
176
     1
 90
        3
176
     1
 90
        0
176
     1
 90
        0
176
     1
290
     0
176
     1
 90
        1
176
     1
 40
0.0
176
     1
 90
        0
176
     1
290
     0
176
     1
290
     1
176
     1
290
     1
176
     1
290
     0
176
     1
290
     0
176
     1
290
     0
176
     1
290
     0
176
     1
290
     0
176
     1
290
     0
176
     1
 90
       50
176
     1
 40
0.0
176
     1
 40
1.0
176
     1
 90
        0
176
     1
 62
    18
420
        0
176
     1
 90
       50
176
     1
 90
        3
176
     1
 62
     5
420
      255
176
     1
290
     0
176
     1
 90
       50
176
     1
 90
       50
176
     1
 90
       50
176
     1
290
     0
176
     1
 90
       50
176
     1
 62
   256
176
     0
 40
1.0
176
     0
 90
        2
176
     1
  1
strokes_ogs.tif
176
     1
290
     0
176
     1
 40
1.0
176
     1
 40
1.0
176
     1
  0
VISUALSTYLE
  5
BCB
102
{ACAD_REACTORS
330
2F
102
}
330
2F
100
AcDbVisualStyle
  2
Dim
 70
    11
177
     3
291
     1
 70
    58
 90
        2
176
     1
 90
        2
176
     1
 90
        0
176
     1
 90
        0
176
     1
 40
0.6
176
     1
 40
30.0
176
     1
 62
     7
176
     1
 90
        1
176
     1
 90
        4
176
     1
 62
     7
176
     1
 62
   257
176
     1
 90
        1
176
     1
 90
        1
176
     1
 40
1.0
176
     1
 90
        8
176
     1
 62
     7
176
     1
 40
1.0
176
     1
 90
        1
176
     1
 90
        6
176
     1
 90
        2
176
     1
 62
     7
176
     1
 90
        5
176
     1
 90
        0
176
     1
 90
        0
176
     1
290
     0
176
     1
 90
        1
176
     1
 40
-50.0
176
     1
 90
        0
176
     1
290
     0
176
     1
290
     1
176
     1
290
     1
176
     1
290
     0
176
     1
290
     0
176
     1
290
     0
176
     1
290
     0
176
     1
290
     0
176
     1
290
     0
176
     1
 90
       50
176
     1
 40
0.0
176
     1
 40
1.0
176
     1
 90
        0
176
     1
 62
    18
420
        0
176
     1
 90
       50
176
     1
 90
        3
176
     1
 62
     5
420
      255
176
     1
290
     0
176
     1
 90
       50
176
     1
 90
       50
176
     1
 90
       50
176
     1
290
     0
176
     1
 90
       50
176
     1
 62
   256
176
     0
 40
1.0
176
     0
 90
        2
176
     1
  1
strokes_ogs.tif
176
     1
290
     0
176
     1
 40
1.0
176
     1
 40
1.0
176
     1
  0
VISUALSTYLE
  5
BD8
102
{ACAD_REACTORS
330
2F
102
}
330
2F
100
AcDbVisualStyle
  2
EdgeColorOff
 70
    22
177
     3
291
     1
 70
    58
 90
        2
176
     0
 90
        2
176
     0
 90
        0
176
     0
 90
        0
176
     0
 40
0.6
176
     0
 40
30.0
176
     0
 62
     7
176
     0
 90
        1
176
     0
 90
        4
176
     0
 62
     7
176
     0
 62
   257
176
     0
 90
        1
176
     0
 90
        1
176
     0
 40
1.0
176
     0
 90
        8
176
     2
 62
     7
176
     0
 40
1.0
176
     0
 90
        1
176
     0
 90
        6
176
     0
 90
        2
176
     0
 62
     7
176
     0
 90
        5
176
     0
 90
        0
176
     0
 90
        0
176
     0
290
     0
176
     0
 90
        1
176
     0
 40
0.0
176
     0
 90
        0
176
     0
290
     0
176
     0
290
     1
176
     0
290
     1
176
     0
290
     0
176
     0
290
     0
176
     0
290
     0
176
     0
290
     0
176
     0
290
     0
176
     0
290
     0
176
     0
 90
       50
176
     0
 40
0.0
176
     0
 40
1.0
176
     0
 90
        0
176
     0
 62
    18
420
        0
176
     0
 90
       50
176
     0
 90
        3
176
     0
 62
     5
420
      255
176
     0
290
     0
176
     0
 90
       50
176
     0
 90
       50
176
     0
 90
       50
176
     0
290
     0
176
     0
 90
       50
176
     0
 62
   256
176
     0
 40
1.0
176
     0
 90
        2
176
     0
  1
strokes_ogs.tif
176
     0
290
     0
176
     0
 40
1.0
176
     0
 40
1.0
176
     0
  0
VISUALSTYLE
  5
BCF
102
{ACAD_REACTORS
330
2F
102
}
330
2F
100
AcDbVisualStyle
  2
Facepattern
 70
    15
177
     3
291
     1
 70
    58
 90
        2
176
     1
 90
        2
176
     1
 90
        0
176
     1
 90
        0
176
     1
 40
0.6
176
     1
 40
30.0
176
     1
 62
     7
176
     1
 90
        1
176
     1
 90
        4
176
     1
 62
     7
176
     1
 62
   257
176
     1
 90
        1
176
     1
 90
        1
176
     1
 40
1.0
176
     1
 90
        8
176
     1
 62
     7
176
     1
 40
1.0
176
     1
 90
        1
176
     1
 90
        6
176
     1
 90
        2
176
     1
 62
     7
176
     1
 90
        5
176
     1
 90
        0
176
     1
 90
        0
176
     1
290
     0
176
     1
 90
        1
176
     1
 40
0.0
176
     1
 90
        0
176
     1
290
     0
176
     1
290
     1
176
     1
290
     1
176
     1
290
     0
176
     1
290
     0
176
     1
290
     0
176
     1
290
     0
176
     1
290
     0
176
     1
290
     0
176
     1
 90
       50
176
     1
 40
0.0
176
     1
 40
1.0
176
     1
 90
        0
176
     1
 62
    18
420
        0
176
     1
 90
       50
176
     1
 90
        3
176
     1
 62
     5
420
      255
176
     1
290
     0
176
     1
 90
       50
176
     1
 90
       50
176
     1
 90
       50
176
     1
290
     0
176
     1
 90
       50
176
     1
 62
   256
176
     0
 40
1.0
176
     0
 90
        2
176
     1
  1
strokes_ogs.tif
176
     1
290
     0
176
     1
 40
1.0
176
     1
 40
1.0
176
     1
  0
VISUALSTYLE
  5
BC3
102
{ACAD_REACTORS
330
2F
102
}
330
2F
100
AcDbVisualStyle
  2
Flat
 70
     0
177
     3
291
     1
 70
    58
 90
        2
176
     1
 90
        1
176
     1
 90
        1
176
     1
 90
        2
176
     1
 40
0.6
176
     1
 40
30.0
176
     1
 62
     7
176
     1
 90
        0
176
     1
 90
        0
176
     1
 62
     7
176
     1
 62
   257
176
     1
 90
        1
176
     1
 90
        1
176
     1
 40
1.0
176
     1
 90
        8
176
     1
 62
     7
176
     1
 40
1.0
176
     1
 90
        1
176
     1
 90
        6
176
     1
 90
        2
176
     1
 62
     7
176
     1
 90
        5
176
     1
 90
        0
176
     1
 90
        0
176
     1
290
     0
176
     1
 90
       13
176
     1
 40
0.0
176
     1
 90
        0
176
     1
290
     0
176
     1
290
     1
176
     1
290
     1
176
     1
290
     0
176
     1
290
     0
176
     1
290
     0
176
     1
290
     0
176
     1
290
     0
176
     1
290
     0
176
     1
 90
       50
176
     1
 40
0.0
176
     1
 40
1.0
176
     1
 90
        0
176
     1
 62
    18
420
        0
176
     1
 90
       50
176
     1
 90
        3
176
     1
 62
     5
420
      255
176
     1
290
     0
176
     1
 90
       50
176
     1
 90
       50
176
     1
 90
       50
176
     1
290
     0
176
     1
 90
       50
176
     1
 62
   256
176
     0
 40
1.0
176
     0
 90
        2
176
     1
  1
strokes_ogs.tif
176
     1
290
     0
176
     1
 40
1.0
176
     1
 40
1.0
176
     1
  0
VISUALSTYLE
  5
BC4
102
{ACAD_REACTORS
330
2F
102
}
330
2F
100
AcDbVisualStyle
  2
FlatWithEdges
 70
     1
177
     3
291
     1
 70
    58
 90
        2
176
     1
 90
        1
176
     1
 90
        1
176
     1
 90
        2
176
     1
 40
0.6
176
     1
 40
30.0
176
     1
 62
     7
176
     1
 90
        1
176
     1
 90
        0
176
     1
 62
     7
176
     1
 62
   257
176
     1
 90
        1
176
     1
 90
        1
176
     1
 40
1.0
176
     1
 90
        0
176
     1
 62
   257
176
     1
 40
1.0
176
     1
 90
        1
176
     1
 90
        6
176
     1
 90
        2
176
     1
 62
     7
176
     1
 90
        5
176
     1
 90
        0
176
     1
 90
        0
176
     1
290
     0
176
     1
 90
       13
176
     1
 40
0.0
176
     1
 90
        0
176
     1
290
     0
176
     1
290
     1
176
     1
290
     1
176
     1
290
     0
176
     1
290
     0
176
     1
290
     0
176
     1
290
     0
176
     1
290
     0
176
     1
290
     0
176
     1
 90
       50
176
     1
 40
0.0
176
     1
 40
1.0
176
     1
 90
        0
176
     1
 62
    18
420
        0
176
     1
 90
       50
176
     1
 90
        3
176
     1
 62
     5
420
      255
176
     1
290
     0
176
     1
 90
       50
176
     1
 90
       50
176
     1
 90
       50
176
     1
290
     0
176
     1
 90
       50
176
     1
 62
   256
176
     0
 40
1.0
176
     0
 90
        2
176
     1
  1
strokes_ogs.tif
176
     1
290
     0
176
     1
 40
1.0
176
     1
 40
1.0
176
     1
  0
VISUALSTYLE
  5
BC5
102
{ACAD_REACTORS
330
2F
102
}
330
2F
100
AcDbVisualStyle
  2
Gouraud
 70
     2
177
     3
291
     1
 70
    58
 90
        2
176
     1
 90
        2
176
     1
 90
        1
176
     1
 90
        2
176
     1
 40
0.6
176
     1
 40
30.0
176
     1
 62
     7
176
     1
 90
        0
176
     1
 90
        0
176
     1
 62
     7
176
     1
 62
   257
176
     1
 90
        1
176
     1
 90
        1
176
     1
 40
1.0
176
     1
 90
        0
176
     1
 62
     7
176
     1
 40
1.0
176
     1
 90
        1
176
     1
 90
        6
176
     1
 90
        2
176
     1
 62
     7
176
     1
 90
        5
176
     1
 90
        0
176
     1
 90
        0
176
     1
290
     0
176
     1
 90
       13
176
     1
 40
0.0
176
     1
 90
        0
176
     1
290
     0
176
     1
290
     1
176
     1
290
     1
176
     1
290
     0
176
     1
290
     0
176
     1
290
     0
176
     1
290
     0
176
     1
290
     0
176
     1
290
     0
176
     1
 90
       50
176
     1
 40
0.0
176
     1
 40
1.0
176
     1
 90
        0
176
     1
 62
    18
420
        0
176
     1
 90
       50
176
     1
 90
        3
176
     1
 62
     5
420
      255
176
     1
290
     0
176
     1
 90
       50
176
     1
 90
       50
176
     1
 90
       50
176
     1
290
     0
176
     1
 90
       50
176
     1
 62
   256
176
     0
 40
1.0
176
     0
 90
        2
176
     1
  1
strokes_ogs.tif
176
     1
290
     0
176
     1
 40
1.0
176
     1
 40
1.0
176
     1
  0
VISUALSTYLE
  5
BC6
102
{ACAD_REACTORS
330
2F
102
}
330
2F
100
AcDbVisualStyle
  2
GouraudWithEdges
 70
     3
177
     3
291
     1
 70
    58
 90
        2
176
     1
 90
        2
176
     1
 90
        1
176
     1
 90
        2
176
     1
 40
0.6
176
     1
 40
30.0
176
     1
 62
     7
176
     1
 90
        1
176
     1
 90
        0
176
     1
 62
     7
176
     1
 62
   257
176
     1
 90
        1
176
     1
 90
        1
176
     1
 40
1.0
176
     1
 90
        0
176
     1
 62
   257
176
     1
 40
1.0
176
     1
 90
        1
176
     1
 90
        6
176
     1
 90
        2
176
     1
 62
     7
176
     1
 90
        5
176
     1
 90
        0
176
     1
 90
        0
176
     1
290
     0
176
     1
 90
       13
176
     1
 40
0.0
176
     1
 90
        0
176
     1
290
     0
176
     1
290
     1
176
     1
290
     1
176
     1
290
     0
176
     1
290
     0
176
     1
290
     0
176
     1
290
     0
176
     1
290
     0
176
     1
290
     0
176
     1
 90
       50
176
     1
 40
0.0
176
     1
 40
1.0
176
     1
 90
        0
176
     1
 62
    18
420
        0
176
     1
 90
       50
176
     1
 90
        3
176
     1
 62
     5
420
      255
176
     1
290
     0
176
     1
 90
       50
176
     1
 90
       50
176
     1
 90
       50
176
     1
290
     0
176
     1
 90
       50
176
     1
 62
   256
176
     0
 40
1.0
176
     0
 90
        2
176
     1
  1
strokes_ogs.tif
176
     1
290
     0
176
     1
 40
1.0
176
     1
 40
1.0
176
     1
  0
VISUALSTYLE
  5
BC9
102
{ACAD_REACTORS
330
2F
102
}
330
2F
100
AcDbVisualStyle
  2
Hidden
 70
     6
177
     3
291
     0
 70
    58
 90
        1
176
     1
 90
        2
176
     1
 90
        2
176
     1
 90
        0
176
     1
 40
0.6
176
     1
 40
30.0
176
     1
 62
     7
176
     1
 90
        2
176
     1
 90
        2
176
     1
 62
     7
176
     1
 62
   257
176
     1
 90
        2
176
     1
 90
        1
176
     1
 40
40.0
176
     1
 90
        0
176
     1
 62
   257
176
     1
 40
1.0
176
     1
 90
        1
176
     1
 90
        6
176
     1
 90
        2
176
     1
 62
     7
176
     1
 90
        3
176
     1
 90
        0
176
     1
 90
        0
176
     1
290
     0
176
     1
 90
        1
176
     1
 40
0.0
176
     1
 90
        0
176
     1
290
     0
176
     1
290
     1
176
     1
290
     1
176
     1
290
     0
176
     1
290
     0
176
     1
290
     0
176
     1
290
     0
176
     1
290
     0
176
     1
290
     0
176
     1
 90
       50
176
     1
 40
0.0
176
     1
 40
1.0
176
     1
 90
        0
176
     1
 62
    18
420
        0
176
     1
 90
       50
176
     1
 90
        3
176
     1
 62
     5
420
      255
176
     1
290
     0
176
     1
 90
       50
176
     1
 90
       50
176
     1
 90
       50
176
     1
290
     0
176
     1
 90
       50
176
     1
 62
   256
176
     0
 40
1.0
176
     0
 90
        2
176
     1
  1
strokes_ogs.tif
176
     1
290
     0
176
     1
 40
1.0
176
     1
 40
1.0
176
     1
  0
VISUALSTYLE
  5
BD6
102
{ACAD_REACTORS
330
2F
102
}
330
2F
100
AcDbVisualStyle
  2
JitterOff
 70
    20
177
     3
291
     1
 70
    58
 90
        2
176
     0
 90
        2
176
     0
 90
        0
176
     0
 90
        0
176
     0
 40
0.6
176
     0
 40
30.0
176
     0
 62
     7
176
     0
 90
        1
176
     0
 90
        4
176
     0
 62
     7
176
     0
 62
   257
176
     0
 90
        1
176
     0
 90
        1
176
     0
 40
1.0
176
     0
 90
       10
176
     2
 62
     7
176
     0
 40
1.0
176
     0
 90
        1
176
     0
 90
        6
176
     0
 90
        2
176
     0
 62
     7
176
     0
 90
        5
176
     0
 90
        0
176
     0
 90
        0
176
     0
290
     0
176
     0
 90
        1
176
     0
 40
0.0
176
     0
 90
        0
176
     0
290
     0
176
     0
290
     1
176
     0
290
     1
176
     0
290
     0
176
     0
290
     0
176
     0
290
     0
176
     0
290
     0
176
     0
290
     0
176
     0
290
     0
176
     0
 90
       50
176
     0
 40
0.0
176
     0
 40
1.0
176
     0
 90
        0
176
     0
 62
    18
420
        0
176
     0
 90
       50
176
     0
 90
        3
176
     0
 62
     5
420
      255
176
     0
290
     0
176
     0
 90
       50
176
     0
 90
       50
176
     0
 90
       50
176
     0
290
     0
176
     0
 90
       50
176
     0
 62
   256
176
     0
 40
1.0
176
     0
 90
        2
176
     0
  1
strokes_ogs.tif
176
     0
290
     0
176
     0
 40
1.0
176
     0
 40
1.0
176
     0
  0
VISUALSTYLE
  5
BCE
102
{ACAD_REACTORS
330
2F
102
}
330
2F
100
AcDbVisualStyle
  2
Linepattern
 70
    14
177
     3
291
     1
 70
    58
 90
        2
176
     1
 90
        2
176
     1
 90
        0
176
     1
 90
        0
176
     1
 40
0.6
176
     1
 40
30.0
176
     1
 62
     7
176
     1
 90
        1
176
     1
 90
        4
176
     1
 62
     7
176
     1
 62
   257
176
     1
 90
        7
176
     1
 90
        7
176
     1
 40
1.0
176
     1
 90
        8
176
     1
 62
     7
176
     1
 40
1.0
176
     1
 90
        1
176
     1
 90
        6
176
     1
 90
        2
176
     1
 62
     7
176
     1
 90
        5
176
     1
 90
        0
176
     1
 90
        0
176
     1
290
     0
176
     1
 90
        1
176
     1
 40
0.0
176
     1
 90
        0
176
     1
290
     0
176
     1
290
     1
176
     1
290
     1
176
     1
290
     0
176
     1
290
     0
176
     1
290
     0
176
     1
290
     0
176
     1
290
     0
176
     1
290
     0
176
     1
 90
       50
176
     1
 40
0.0
176
     1
 40
1.0
176
     1
 90
        0
176
     1
 62
    18
420
        0
176
     1
 90
       50
176
     1
 90
        3
176
     1
 62
     5
420
      255
176
     1
290
     0
176
     1
 90
       50
176
     1
 90
       50
176
     1
 90
       50
176
     1
290
     0
176
     1
 90
       50
176
     1
 62
   256
176
     0
 40
1.0
176
     0
 90
        2
176
     1
  1
strokes_ogs.tif
176
     1
290
     0
176
     1
 40
1.0
176
     1
 40
1.0
176
     1
  0
VISUALSTYLE
  5
BD7
102
{ACAD_REACTORS
330
2F
102
}
330
2F
100
AcDbVisualStyle
  2
OverhangOff
 70
    21
177
     3
291
     1
 70
    58
 90
        2
176
     0
 90
        2
176
     0
 90
        0
176
     0
 90
        0
176
     0
 40
0.6
176
     0
 40
30.0
176
     0
 62
     7
176
     0
 90
        1
176
     0
 90
        4
176
     0
 62
     7
176
     0
 62
   257
176
     0
 90
        1
176
     0
 90
        1
176
     0
 40
1.0
176
     0
 90
        9
176
     2
 62
     7
176
     0
 40
1.0
176
     0
 90
        1
176
     0
 90
        6
176
     0
 90
        2
176
     0
 62
     7
176
     0
 90
        5
176
     0
 90
        0
176
     0
 90
        0
176
     0
290
     0
176
     0
 90
        1
176
     0
 40
0.0
176
     0
 90
        0
176
     0
290
     0
176
     0
290
     1
176
     0
290
     1
176
     0
290
     0
176
     0
290
     0
176
     0
290
     0
176
     0
290
     0
176
     0
290
     0
176
     0
290
     0
176
     0
 90
       50
176
     0
 40
0.0
176
     0
 40
1.0
176
     0
 90
        0
176
     0
 62
    18
420
        0
176
     0
 90
       50
176
     0
 90
        3
176
     0
 62
     5
420
      255
176
     0
290
     0
176
     0
 90
       50
176
     0
 90
       50
176
     0
 90
       50
176
     0
290
     0
176
     0
 90
       50
176
     0
 62
   256
176
     0
 40
1.0
176
     0
 90
        2
176
     0
  1
strokes_ogs.tif
176
     0
290
     0
176
     0
 40
1.0
176
     0
 40
1.0
176
     0
  0
VISUALSTYLE
  5
46
102
{ACAD_REACTORS
330
2F
102
}
330
2F
100
AcDbVisualStyle
  2
Realistic
 70
     8
177
     3
291
     0
 70
    58
 90
        2
176
     1
 90
        2
176
     1
 90
        1
176
     1
 90
        0
176
     1
 40
0.6
176
     1
 40
30.0
176
     1
 62
     7
176
     1
 90
        1
176
     1
 90
        0
176
     1
 62
     7
176
     1
 62
   257
176
     1
 90
        1
176
     1
 90
        1
176
     1
 40
1.0
176
     1
 90
        8
176
     1
 62
     8
176
     1
 40
1.0
176
     1
 90
        1
176
     1
 90
        6
176
     1
 90
        2
176
     1
 62
     7
176
     1
 90
        5
176
     1
 90
        0
176
     1
 90
        0
176
     1
290
     0
176
     1
 90
       13
176
     1
 40
0.0
176
     1
 90
        0
176
     1
290
     0
176
     1
290
     1
176
     1
290
     1
176
     1
290
     0
176
     1
290
     0
176
     1
290
     0
176
     1
290
     0
176
     1
290
     0
176
     1
290
     0
176
     1
 90
       50
176
     1
 40
0.0
176
     1
 40
1.0
176
     1
 90
        0
176
     1
 62
    18
420
        0
176
     1
 90
       50
176
     1
 90
        3
176
     1
 62
     5
420
      255
176
     1
290
     0
176
     1
 90
       50
176
     1
 90
       50
176
     1
 90
       50
176
     1
290
     0
176
     1
 90
       50
176
     1
 62
   256
176
     0
 40
1.0
176
     0
 90
        2
176
     1
  1
strokes_ogs.tif
176
     1
290
     0
176
     1
 40
1.0
176
     1
 40
1.0
176
     1
  0
VISUALSTYLE
  5
BD5
102
{ACAD_REACTORS
330
2F
102
}
330
2F
100
AcDbVisualStyle
  2
Shaded
 70
    27
177
     3
291
     0
 70
    58
 90
        2
176
     1
 90
        2
176
     1
 90
        1
176
     1
 90
        2
176
     1
 40
0.6
176
     1
 40
30.0
176
     1
 62
     7
176
     1
 90
        0
176
     1
 90
        4
176
     1
 62
     7
176
     1
 62
   257
176
     1
 90
        1
176
     1
 90
        1
176
     1
 40
1.0
176
     1
 90
        8
176
     1
 62
   257
176
     1
 40
1.0
176
     1
 90
        1
176
     1
 90
        6
176
     1
 90
        2
176
     1
 62
     8
176
     1
 90
        3
176
     1
 90
        0
176
     1
 90
        0
176
     1
290
     0
176
     1
 90
        5
176
     1
 40
0.0
176
     1
 90
        0
176
     1
290
     0
176
     1
290
     1
176
     1
290
     1
176
     1
290
     0
176
     1
290
     0
176
     1
290
     0
176
     1
290
     0
176
     1
290
     0
176
     1
290
     0
176
     1
 90
       50
176
     1
 40
0.0
176
     1
 40
1.0
176
     1
 90
        0
176
     1
 62
    18
420
        0
176
     1
 90
       50
176
     1
 90
        3
176
     1
 62
     5
420
      255
176
     1
290
     0
176
     1
 90
       50
176
     1
 90
       50
176
     1
 90
       50
176
     1
290
     0
176
     1
 90
       50
176
     1
 62
   256
176
     0
 40
1.0
176
     0
 90
        2
176
     1
  1
strokes_ogs.tif
176
     1
290
     0
176
     1
 40
1.0
176
     1
 40
1.0
176
     1
  0
VISUALSTYLE
  5
BD4
102
{ACAD_REACTORS
330
2F
102
}
330
2F
100
AcDbVisualStyle
  2
Shaded with edges
 70
    26
177
     3
291
     0
 70
    58
 90
        2
176
     1
 90
        2
176
     1
 90
        1
176
     1
 90
        2
176
     1
 40
0.6
176
     1
 40
30.0
176
     1
 62
     7
176
     1
 90
        1
176
     1
 90
       10
176
     1
 62
     7
176
     1
 62
   257
176
     1
 90
        2
176
     1
 90
        1
176
     1
 40
1.0
176
     1
 90
        8
176
     1
 62
   257
176
     1
 40
1.0
176
     1
 90
        1
176
     1
 90
        6
176
     1
 90
        2
176
     1
 62
     7
176
     1
 90
        3
176
     1
 90
        0
176
     1
 90
        0
176
     1
290
     0
176
     1
 90
        5
176
     1
 40
0.0
176
     1
 90
        0
176
     1
290
     0
176
     1
290
     1
176
     1
290
     1
176
     1
290
     0
176
     1
290
     0
176
     1
290
     0
176
     1
290
     0
176
     1
290
     0
176
     1
290
     0
176
     1
 90
       50
176
     1
 40
0.0
176
     1
 40
1.0
176
     1
 90
        0
176
     1
 62
    18
420
        0
176
     1
 90
       50
176
     1
 90
        3
176
     1
 62
     5
420
      255
176
     1
290
     0
176
     1
 90
       50
176
     1
 90
       50
176
     1
 90
       50
176
     1
290
     0
176
     1
 90
       50
176
     1
 62
   256
176
     0
 40
1.0
176
     0
 90
        2
176
     1
  1
strokes_ogs.tif
176
     1
290
     0
176
     1
 40
1.0
176
     1
 40
1.0
176
     1
  0
VISUALSTYLE
  5
BD1
102
{ACAD_REACTORS
330
2F
102
}
330
2F
100
AcDbVisualStyle
  2
Shades of Gray
 70
    23
177
     3
291
     0
 70
    58
 90
        2
176
     1
 90
        2
176
     1
 90
        3
176
     1
 90
        0
176
     1
 40
0.6
176
     1
 40
30.0
176
     1
 62
     7
176
     1
 90
        2
176
     1
 90
        2
176
     1
 62
     7
176
     1
 62
     7
176
     1
 90
        1
176
     1
 90
        1
176
     1
 40
40.0
176
     1
 90
        8
176
     1
 62
     7
176
     1
 40
1.0
176
     1
 90
        1
176
     1
 90
        6
176
     1
 90
        2
176
     1
 62
     7
176
     1
 90
        3
176
     1
 90
        0
176
     1
 90
        0
176
     1
290
     0
176
     1
 90
        1
176
     1
 40
0.0
176
     1
 90
        0
176
     1
290
     0
176
     1
290
     1
176
     1
290
     1
176
     1
290
     0
176
     1
290
     0
176
     1
290
     0
176
     1
290
     0
176
     1
290
     0
176
     1
290
     0
176
     1
 90
       50
176
     1
 40
0.0
176
     1
 40
1.0
176
     1
 90
        0
176
     1
 62
    18
420
        0
176
     1
 90
       50
176
     1
 90
        3
176
     1
 62
     5
420
      255
176
     1
290
     0
176
     1
 90
       50
176
     1
 90
       50
176
     1
 90
       50
176
     1
290
     0
176
     1
 90
       50
176
     1
 62
   256
176
     0
 40
1.0
176
     0
 90
        2
176
     1
  1
strokes_ogs.tif
176
     1
290
     0
176
     1
 40
1.0
176
     1
 40
1.0
176
     1
  0
VISUALSTYLE
  5
BD2
102
{ACAD_REACTORS
330
2F
102
}
330
2F
100
AcDbVisualStyle
  2
Sketchy
 70
    24
177
     3
291
     0
 70
    58
 90
        1
176
     1
 90
        2
176
     1
 90
        2
176
     1
 90
        0
176
     1
 40
0.6
176
     1
 40
30.0
176
     1
 62
     7
176
     1
 90
        2
176
     1
 90
        2
176
     1
 62
     7
176
     1
 62
     7
176
     1
 90
        1
176
     1
 90
        1
176
     1
 40
40.0
176
     1
 90
       11
176
     1
 62
     7
176
     1
 40
1.0
176
     1
 90
        1
176
     1
 90
        6
176
     1
 90
        2
176
     1
 62
     7
176
     1
 90
        6
176
     1
 90
        0
176
     1
 90
        0
176
     1
290
     0
176
     1
 90
        1
176
     1
 40
0.0
176
     1
 90
        0
176
     1
290
     0
176
     1
290
     1
176
     1
290
     1
176
     1
290
     0
176
     1
290
     0
176
     1
290
     0
176
     1
290
     0
176
     1
290
     0
176
     1
290
     0
176
     1
 90
       50
176
     1
 40
0.0
176
     1
 40
1.0
176
     1
 90
        0
176
     1
 62
    18
420
        0
176
     1
 90
       50
176
     1
 90
        3
176
     1
 62
     5
420
      255
176
     1
290
     0
176
     1
 90
       50
176
     1
 90
       50
176
     1
 90
       50
176
     1
290
     0
176
     1
 90
       50
176
     1
 62
   256
176
     0
 40
1.0
176
     0
 90
        2
176
     1
  1
strokes_ogs.tif
176
     1
290
     0
176
     1
 40
1.0
176
     1
 40
1.0
176
     1
  0
VISUALSTYLE
  5
BCD
102
{ACAD_REACTORS
330
2F
102
}
330
2F
100
AcDbVisualStyle
  2
Thicken
 70
    13
177
     3
291
     1
 70
    58
 90
        2
176
     1
 90
        2
176
     1
 90
        0
176
     1
 90
        0
176
     1
 40
0.6
176
     1
 40
30.0
176
     1
 62
     7
176
     1
 90
        1
176
     1
 90
        4
176
     1
 62
     7
176
     1
 62
   257
176
     1
 90
        1
176
     1
 90
        1
176
     1
 40
1.0
176
     1
 90
       12
176
     1
 62
     7
176
     1
 40
1.0
176
     1
 90
        1
176
     1
 90
        6
176
     1
 90
        2
176
     1
 62
     7
176
     1
 90
        5
176
     1
 90
        0
176
     1
 90
        0
176
     1
290
     0
176
     1
 90
        1
176
     1
 40
0.0
176
     1
 90
        0
176
     1
290
     0
176
     1
290
     1
176
     1
290
     1
176
     1
290
     0
176
     1
290
     0
176
     1
290
     0
176
     1
290
     0
176
     1
290
     0
176
     1
290
     0
176
     1
 90
       50
176
     1
 40
0.0
176
     1
 40
1.0
176
     1
 90
        0
176
     1
 62
    18
420
        0
176
     1
 90
       50
176
     1
 90
        3
176
     1
 62
     5
420
      255
176
     1
290
     0
176
     1
 90
       50
176
     1
 90
       50
176
     1
 90
       50
176
     1
290
     0
176
     1
 90
       50
176
     1
 62
   256
176
     0
 40
1.0
176
     0
 90
        2
176
     1
  1
strokes_ogs.tif
176
     1
290
     0
176
     1
 40
1.0
176
     1
 40
1.0
176
     1
  0
VISUALSTYLE
  5
BC8
102
{ACAD_REACTORS
330
2F
102
}
330
2F
100
AcDbVisualStyle
  2
Wireframe
 70
     5
177
     3
291
     0
 70
    58
 90
        0
176
     1
 90
        2
176
     1
 90
        0
176
     1
 90
        0
176
     1
 40
0.6
176
     1
 40
30.0
176
     1
 62
     7
176
     1
 90
        1
176
     1
 90
        4
176
     1
 62
     7
176
     1
 62
   257
176
     1
 90
        1
176
     1
 90
        1
176
     1
 40
1.0
176
     1
 90
        0
176
     1
 62
   257
176
     1
 40
1.0
176
     1
 90
        1
176
     1
 90
        6
176
     1
 90
        2
176
     1
 62
     7
176
     1
 90
        3
176
     1
 90
        0
176
     1
 90
        0
176
     1
290
     0
176
     1
 90
        1
176
     1
 40
0.0
176
     1
 90
        0
176
     1
290
     0
176
     1
290
     1
176
     1
290
     1
176
     1
290
     0
176
     1
290
     0
176
     1
290
     0
176
     1
290
     0
176
     1
290
     0
176
     1
290
     0
176
     1
 90
       50
176
     1
 40
0.0
176
     1
 40
1.0
176
     1
 90
        0
176
     1
 62
    18
420
        0
176
     1
 90
       50
176
     1
 90
        3
176
     1
 62
     5
420
      255
176
     1
290
     0
176
     1
 90
       50
176
     1
 90
       50
176
     1
 90
       50
176
     1
290
     0
176
     1
 90
       50
176
     1
 62
   256
176
     0
 40
1.0
176
     0
 90
        2
176
     1
  1
strokes_ogs.tif
176
     1
290
     0
176
     1
 40
1.0
176
     1
 40
1.0
176
     1
  0
VISUALSTYLE
  5
BD3
102
{ACAD_REACTORS
330
2F
102
}
330
2F
100
AcDbVisualStyle
  2
X-Ray
 70
    25
177
     3
291
     0
 70
    58
 90
        2
176
     1
 90
        2
176
     1
 90
        1
176
     1
 90
        1
176
     1
 40
0.5
176
     1
 40
30.0
176
     1
 62
     7
176
     1
 90
        1
176
     1
 90
        0
176
     1
 62
     7
176
     1
 62
   257
176
     1
 90
        1
176
     1
 90
        1
176
     1
 40
1.0
176
     1
 90
        8
176
     1
 62
     7
176
     1
 40
1.0
176
     1
 90
        1
176
     1
 90
        6
176
     1
 90
        2
176
     1
 62
     7
176
     1
 90
        3
176
     1
 90
        0
176
     1
 90
        0
176
     1
290
     0
176
     1
 90
       13
176
     1
 40
0.0
176
     1
 90
        0
176
     1
290
     0
176
     1
290
     1
176
     1
290
     1
176
     1
290
     0
176
     1
290
     0
176
     1
290
     0
176
     1
290
     0
176
     1
290
     0
176
     1
290
     0
176
     1
 90
       50
176
     1
 40
0.0
176
     1
 40
1.0
176
     1
 90
        0
176
     1
 62
    18
420
        0
176
     1
 90
       50
176
     1
 90
        3
176
     1
 62
     5
420
      255
176
     1
290
     0
176
     1
 90
       50
176
     1
 90
       50
176
     1
 90
       50
176
     1
290
     0
176
     1
 90
       50
176
     1
 62
   256
176
     0
 40
1.0
176
     0
 90
        2
176
     1
  1
strokes_ogs.tif
176
     1
290
     0
176
     1
 40
1.0
176
     1
 40
1.0
176
     1
  0
DICTIONARYVAR
  5
BBE
102
{ACAD_REACTORS
330
BB8
102
}
330
BB8
100
DictionaryVariables
280
     0
  1
1:1
  0
DICTIONARYVAR
  5
BBA
102
{ACAD_REACTORS
330
BB8
102
}
330
BB8
100
DictionaryVariables
280
     0
  1
STANDARD
  0
DICTIONARYVAR
  5
BB9
102
{ACAD_REACTORS
330
BB8
102
}
330
BB8
100
DictionaryVariables
280
     0
  1
STANDARD
  0
DICTIONARYVAR
  5
BBB
102
{ACAD_REACTORS
330
BB8
102
}
330
BB8
100
DictionaryVariables
280
     0
  1
Metric50
  0
DICTIONARYVAR
  5
BBC
102
{ACAD_REACTORS
330
BB8
102
}
330
BB8
100
DictionaryVariables
280
     0
  1
Metric50
  0
DICTIONARYVAR
  5
C3B
102
{ACAD_REACTORS
330
BB8
102
}
330
BB8
100
DictionaryVariables
280
     0
  1
1
  0
DICTIONARYVAR
  5
C39
102
{ACAD_REACTORS
330
BB8
102
}
330
BB8
100
DictionaryVariables
280
     0
  1
1
  0
DICTIONARYVAR
  5
FF3
102
{ACAD_REACTORS
330
BB8
102
}
330
BB8
100
DictionaryVariables
280
     0
  1
4
  0
DICTIONARYVAR
  5
C38
102
{ACAD_REACTORS
330
BB8
102
}
330
BB8
100
DictionaryVariables
280
     0
  1
0
  0
DICTIONARYVAR
  5
BC0
102
{ACAD_REACTORS
330
BB8
102
}
330
BB8
100
DictionaryVariables
280
     0
  1
1
  0
DICTIONARYVAR
  5
BC1
102
{ACAD_REACTORS
330
BB8
102
}
330
BB8
100
DictionaryVariables
280
     0
  1
15
  0
DICTIONARYVAR
  5
BBF
102
{ACAD_REACTORS
330
BB8
102
}
330
BB8
100
DictionaryVariables
280
     0
  1
0
  0
DICTIONARYVAR
  5
BBD
102
{ACAD_REACTORS
330
BB8
102
}
330
BB8
100
DictionaryVariables
280
     0
  1
0
  0
DICTIONARYVAR
  5
C3C
102
{ACAD_REACTORS
330
BB8
102
}
330
BB8
100
DictionaryVariables
280
     0
  1
1
  0
DICTIONARYVAR
  5
C37
102
{ACAD_REACTORS
330
BB8
102
}
330
BB8
100
DictionaryVariables
280
     0
  1
127
  0
DICTIONARY
  5
43526
330
283CD
100
AcDbDictionary
280
     1
281
     1
  3
ACAD_XREC_ROUNDTRIP
360
43527
  0
DICTIONARY
  5
43522
330
BDD
100
AcDbDictionary
280
     1
281
     1
  3
ACAD_XREC_ROUNDTRIP
360
43523
  0
DICTIONARY
  5
18
330
16
100
AcDbDictionary
280
     1
281
     1
  0
DICTIONARY
  5
1F
330
1E
100
AcDbDictionary
280
     1
281
     1
  0
DICTIONARY
  5
E
330
C
100
AcDbDictionary
280
     1
281
     1
  3
BUMPTILE
360
F
  3
DIFFUSETILE
360
10
  3
OPACITYTILE
360
11
  3
REFLECTIONTILE
360
12
  0
DICTIONARY
  5
43524
330
283CC
100
AcDbDictionary
280
     1
281
     1
  3
ACAD_XREC_ROUNDTRIP
360
43525
  0
DICTIONARY
  5
43520
330
BDB
100
AcDbDictionary
280
     1
281
     1
  3
ACAD_XREC_ROUNDTRIP
360
43521
  0
DICTIONARY
  5
45
330
44
100
AcDbDictionary
280
     1
281
     1
  3
ACAD_ROUNDTRIP_2008_TABLESTYLE_CELLSTYLEMAP
360
4351F
  0
XRECORD
  5
43527
102
{ACAD_REACTORS
330
43526
102
}
330
43526
100
AcDbXrecord
280
     1
102
DISPLAYNAME
  1
Imperial24
102
FLAGS
 90
        0
  0
XRECORD
  5
43523
102
{ACAD_REACTORS
330
43522
102
}
330
43522
100
AcDbXrecord
280
     1
102
DISPLAYNAME
  1
Metric50
102
FLAGS
 90
        0
  0
XRECORD
  5
F
102
{ACAD_REACTORS
330
E
102
}
330
E
100
AcDbXrecord
280
     1
270
     1
271
     1
  0
XRECORD
  5
10
102
{ACAD_REACTORS
330
E
102
}
330
E
100
AcDbXrecord
280
     1
270
     1
271
     1
  0
XRECORD
  5
11
102
{ACAD_REACTORS
330
E
102
}
330
E
100
AcDbXrecord
280
     1
270
     1
271
     1
  0
XRECORD
  5
12
102
{ACAD_REACTORS
330
E
102
}
330
E
100
AcDbXrecord
280
     1
270
     1
271
     1
  0
XRECORD
  5
43525
102
{ACAD_REACTORS
330
43524
102
}
330
43524
100
AcDbXrecord
280
     1
102
DISPLAYNAME
  1
Imperial24
102
FLAGS
 90
        0
  0
XRECORD
  5
43521
102
{ACAD_REACTORS
330
43520
102
}
330
43520
100
AcDbXrecord
280
     1
102
DISPLAYNAME
  1
Metric50
102
FLAGS
 90
        0
  0
CELLSTYLEMAP
  5
4351F
102
{ACAD_REACTORS
330
45
102
}
330
45
100
AcDbCellStyleMap
 90
        3
300
CELLSTYLE
  1
TABLEFORMAT_BEGIN
 90
        5
170
     1
 91
        0
 92
    32768
 62
   257
 93
        1
300
CONTENTFORMAT
  1
CONTENTFORMAT_BEGIN
 90
        0
 91
        0
 92
      512
 93
        0
300

 40
0.0
140
1.0
 94
        5
 62
     0
340
25
144
6.0
309
CONTENTFORMAT_END
171
     1
301
MARGIN
  1
CELLMARGIN_BEGIN
 40
1.5
 40
1.5
 40
1.5
 40
1.5
 40
0.18
 40
0.18
309
CELLMARGIN_END
 94
        6
 95
        1
302
GRIDFORMAT
  1
GRIDFORMAT_BEGIN
 90
        0
 91
        1
 62
     0
 92
       -2
340
28
 93
        0
 40
1.125
309
GRIDFORMAT_END
 95
        2
302
GRIDFORMAT
  1
GRIDFORMAT_BEGIN
 90
        0
 91
        1
 62
     0
 92
       -2
340
28
 93
        0
 40
1.125
309
GRIDFORMAT_END
 95
        4
302
GRIDFORMAT
  1
GRIDFORMAT_BEGIN
 90
        0
 91
        1
 62
     0
 92
       -2
340
28
 93
        0
 40
1.125
309
GRIDFORMAT_END
 95
        8
302
GRIDFORMAT
  1
GRIDFORMAT_BEGIN
 90
        0
 91
        1
 62
     0
 92
       -2
340
28
 93
        0
 40
1.125
309
GRIDFORMAT_END
 95
       16
302
GRIDFORMAT
  1
GRIDFORMAT_BEGIN
 90
        0
 91
        1
 62
     0
 92
       -2
340
28
 93
        0
 40
1.125
309
GRIDFORMAT_END
 95
       32
302
GRIDFORMAT
  1
GRIDFORMAT_BEGIN
 90
        0
 91
        1
 62
     0
 92
       -2
340
28
 93
        0
 40
1.125
309
GRIDFORMAT_END
309
TABLEFORMAT_END
  1
CELLSTYLE_BEGIN
 90
        1
 91
        1
300
_TITLE
309
CELLSTYLE_END
300
CELLSTYLE
  1
TABLEFORMAT_BEGIN
 90
        5
170
     1
 91
        0
 92
        0
 62
   257
 93
        1
300
CONTENTFORMAT
  1
CONTENTFORMAT_BEGIN
 90
        0
 91
        0
 92
      512
 93
        0
300

 40
0.0
140
1.0
 94
        5
 62
     0
340
25
144
4.5
309
CONTENTFORMAT_END
171
     1
301
MARGIN
  1
CELLMARGIN_BEGIN
 40
1.5
 40
1.5
 40
1.5
 40
1.5
 40
0.18
 40
0.18
309
CELLMARGIN_END
 94
        6
 95
        1
302
GRIDFORMAT
  1
GRIDFORMAT_BEGIN
 90
        0
 91
        1
 62
     0
 92
       -2
340
28
 93
        0
 40
1.125
309
GRIDFORMAT_END
 95
        2
302
GRIDFORMAT
  1
GRIDFORMAT_BEGIN
 90
        0
 91
        1
 62
     0
 92
       -2
340
28
 93
        0
 40
1.125
309
GRIDFORMAT_END
 95
        4
302
GRIDFORMAT
  1
GRIDFORMAT_BEGIN
 90
        0
 91
        1
 62
     0
 92
       -2
340
28
 93
        0
 40
1.125
309
GRIDFORMAT_END
 95
        8
302
GRIDFORMAT
  1
GRIDFORMAT_BEGIN
 90
        0
 91
        1
 62
     0
 92
       -2
340
28
 93
        0
 40
1.125
309
GRIDFORMAT_END
 95
       16
302
GRIDFORMAT
  1
GRIDFORMAT_BEGIN
 90
        0
 91
        1
 62
     0
 92
       -2
340
28
 93
        0
 40
1.125
309
GRIDFORMAT_END
 95
       32
302
GRIDFORMAT
  1
GRIDFORMAT_BEGIN
 90
        0
 91
        1
 62
     0
 92
       -2
340
28
 93
        0
 40
1.125
309
GRIDFORMAT_END
309
TABLEFORMAT_END
  1
CELLSTYLE_BEGIN
 90
        2
 91
        1
300
_HEADER
309
CELLSTYLE_END
300
CELLSTYLE
  1
TABLEFORMAT_BEGIN
 90
        5
170
     1
 91
        0
 92
        0
 62
   257
 93
        1
300
CONTENTFORMAT
  1
CONTENTFORMAT_BEGIN
 90
        0
 91
        0
 92
      512
 93
        0
300

 40
0.0
140
1.0
 94
        2
 62
     0
340
25
144
4.5
309
CONTENTFORMAT_END
171
     1
301
MARGIN
  1
CELLMARGIN_BEGIN
 40
1.5
 40
1.5
 40
1.5
 40
1.5
 40
0.18
 40
0.18
309
CELLMARGIN_END
 94
        6
 95
        1
302
GRIDFORMAT
  1
GRIDFORMAT_BEGIN
 90
        0
 91
        1
 62
     0
 92
       -2
340
28
 93
        0
 40
1.125
309
GRIDFORMAT_END
 95
        2
302
GRIDFORMAT
  1
GRIDFORMAT_BEGIN
 90
        0
 91
        1
 62
     0
 92
       -2
340
28
 93
        0
 40
1.125
309
GRIDFORMAT_END
 95
        4
302
GRIDFORMAT
  1
GRIDFORMAT_BEGIN
 90
        0
 91
        1
 62
     0
 92
       -2
340
28
 93
        0
 40
1.125
309
GRIDFORMAT_END
 95
        8
302
GRIDFORMAT
  1
GRIDFORMAT_BEGIN
 90
        0
 91
        1
 62
     0
 92
       -2
340
28
 93
        0
 40
1.125
309
GRIDFORMAT_END
 95
       16
302
GRIDFORMAT
  1
GRIDFORMAT_BEGIN
 90
        0
 91
        1
 62
     0
 92
       -2
340
28
 93
        0
 40
1.125
309
GRIDFORMAT_END
 95
       32
302
GRIDFORMAT
  1
GRIDFORMAT_BEGIN
 90
        0
 91
        1
 62
     0
 92
       -2
340
28
 93
        0
 40
1.125
309
GRIDFORMAT_END
309
TABLEFORMAT_END
  1
CELLSTYLE_BEGIN
 90
        3
 91
        2
300
_DATA
309
CELLSTYLE_END
  0
ENDSEC
  0
SECTION
  2
ACDSDATA
 70
     2
 71
     6
  0
ACDSSCHEMA
 90
        0
  1
AcDb_Thumbnail_Schema
  2
AcDbDs::ID
280
    10
 91
        8
  2
Thumbnail_Data
280
    15
 91
        0
101
ACDSRECORD
 95
        0
 90
        1
  2
AcDbDs::TreatedAsObjectData
280
     1
291
     1
101
ACDSRECORD
 95
        0
 90
        2
  2
AcDbDs::Legacy
280
     1
291
     1
101
ACDSRECORD
  1
AcDbDs::ID
 90
        3
  2
AcDs:Indexable
280
     1
291
     1
101
ACDSRECORD
  1
AcDbDs::ID
 90
        4
  2
AcDbDs::HandleAttribute
280
     7
282
     1
  0
ACDSSCHEMA
 90
        1
  1
AcDbDs::TreatedAsObjectDataSchema
  2
AcDbDs::TreatedAsObjectData
280
     1
 91
        0
  0
ACDSSCHEMA
 90
        2
  1
AcDbDs::LegacySchema
  2
AcDbDs::Legacy
280
     1
 91
        0
  0
ACDSSCHEMA
 90
        3
  1
AcDbDs::IndexedPropertySchema
  2
AcDs:Indexable
280
     1
 91
        0
  0
ACDSSCHEMA
 90
        4
  1
AcDbDs::HandleAttributeSchema
  2
AcDbDs::HandleAttribute
280
     7
 91
        1
284
     1
  0
ACDSRECORD
 90
        0
  2
AcDbDs::ID
280
    10
320
16
  2
Thumbnail_Data
280
    15
 94
     1828
310
89504E470D0A1A0A0000000D49484452000001000000007508030000009634CF9200000300504C5445000000000000C8C8C80000000000000000000000000000000000000000000000000000330000660000990000CC0000FF0033000033330033660033990033CC0033FF0066000066330066660066990066CC0066FF0099
310
000099330099660099990099CC0099FF00CC0000CC3300CC6600CC9900CCCC00CCFF00FF0000FF3300FF6600FF9900FFCC00FFFF3300003300333300663300993300CC3300FF3333003333333333663333993333CC3333FF3366003366333366663366993366CC3366FF3399003399333399663399993399CC3399FF33CC00
310
33CC3333CC6633CC9933CCCC33CCFF33FF0033FF3333FF6633FF9933FFCC33FFFF6600006600336600666600996600CC6600FF6633006633336633666633996633CC6633FF6666006666336666666666996666CC6666FF6699006699336699666699996699CC6699FF66CC0066CC3366CC6666CC9966CCCC66CCFF66FF0066
310
FF3366FF6666FF9966FFCC66FFFF9900009900339900669900999900CC9900FF9933009933339933669933999933CC9933FF9966009966339966669966999966CC9966FF9999009999339999669999999999CC9999FF99CC0099CC3399CC6699CC9999CCCC99CCFF99FF0099FF3399FF6699FF9999FFCC99FFFFCC0000CC00
310
33CC0066CC0099CC00CCCC00FFCC3300CC3333CC3366CC3399CC33CCCC33FFCC6600CC6633CC6666CC6699CC66CCCC66FFCC9900CC9933CC9966CC9999CC99CCCC99FFCCCC00CCCC33CCCC66CCCC99CCCCCCCCCCFFCCFF00CCFF33CCFF66CCFF99CCFFCCCCFFFFFF0000FF0033FF0066FF0099FF00CCFF00FFFF3300FF3333
310
FF3366FF3399FF33CCFF33FFFF6600FF6633FF6666FF6699FF66CCFF66FFFF9900FF9933FF9966FF9999FF99CCFF99FFFFCC00FFCC33FFCC66FFCC99FFCCCCFFCCFFFFFF00FFFF33FFFF66FFFF99FFFFCCFFFFFF0000000D0D0D1A1A1A2828283535354343435050505D5D5D6B6B6B787878868686939393A1A1A1AEAEAEBB
310
BBBBC9C9C9D6D6D6E4E4E4F1F1F1FFFFFF00000000000000000000000000000000000000000000000000000000000008F1915C000003DF4944415478DAED9D598283200C86739CBC70B31E996BE47DCA2202A2D2B12CD53F763AD5BA908F2404A82D511B916FEF28F45B52ADD7AF019082682D55F2EDFDA4B8DF809AD5BAEE
310
D86FEF477A80A5C85D7C0F000000000000000000000000000000003E90773F6D7A00D55D29000000C400000000000000000000000000000080DAB3CBFC001A17112E70F23E3F1880D64C8DFBA200F05C00D527BE2300F60078734127E4FF34F34D0178913300D41740B87E0F0BA86A6198860220965057361DF9564E322B80
310
455B5E372C85145242A2A839001DC7061E1404397EE501285BFDAA3100637FB2D640370089DD970190B24B556994FA3F00ABFC1000B2DA7E0CC0850111A7BF52A50F32AA68B906C097202947AFB941264E2F6F621E9B47AC9F4A56DC6A0E441531158539893BBE00E2DB47BFD6696A6C353D5E5452EF978ACFF4DF2CEA742F
310
DE3A5460BF1A96AF88AE0082E6BEDC6C197CA6FFF95E0B00569C7B055BAB304FC25D00AC2E6694E7BC1ACF2CA0AC9F3A799F362E10008877BBF7E3BD74ED0B18DF655F31A1D42716B0A3DFAE59D86765538AF8DA51BA118CDFE2E90C20AA11ED9D21B3801AFDF70243A43FE500D680C7B6DE79294F5F00D1B5BCD709CBE7B2
310
D30618FD435EBD03C01ABF6D8F5C5A3A01807F0C8995B300675021C2C7006CCFCFE73C46671F16447A03608E5CC055D5DA17B2AF8593A6BB2826B61764E7B80400A7A7F751A01B809D94CDDBA67D5F2AEE08DA49038BC7A9DC02ACDB1B2EBCACCC03C015C8BC386E972F01585C407C40980A408814DF0610070A9BFF38CF10
310
9E0A40740FD721007505806B761C80C5005A0348EAF6D805A8C605F67A821500CC1020FB4428BA61AEEDCCD83AC8C5A55BF41A03104A5A43CD14DA4A0EA591D60492C187EC56C52280A3D4407D02201A7CF36361AE33E03A4387A6D9A23394672DB645FA18406CD6E75963B4AFCE8FAA18B76F06201D10390470940797C719
310
2B3672E5C4456B007E98C865EF0E803AB9B1777734AC1A0057458F7E009608B9588059515CE501B703B076622E8C84FF1600CE2D409A03609A0B403E3546CD01703C436AFE0D75818D2934071026281F0B602A1728E76C8F0470D9087E1F00DD13403A333427808E53630F04F078170000000000000829F8415BE13EB479A5
310
B5D1951BEF0940CF0FE054856B1F9ABD01003DEACE0100F8F1F303C0DC05C47D837001000000000000000000000000000080DE197EADDC14C066CB2B933E051CF68D9292D8423088D7B6DE6FFA959A52F405EA0E60BC0B24005EAFADEB3F2A08C6001E17049FD60C02401C897301006482088208827707107C5D1F0900C005
310
DA03985E06544FA9FF55FBBB84A502EBDADF111CFEED8D5F0040A301FC01535AEC73B2743EDF0000000049454E44AE426082
  0
ACDSRECORD
 90
        0
  2
AcDbDs::ID
280
    10
320
1E
  2
Thumbnail_Data
280
    15
 94
      882
310
89504E470D0A1A0A0000000D49484452000000B80000007F08030000006B00F8F900000300504C5445FFFFFF000000C8C8C80000000000000000000000000000000000000000000000000000330000660000990000CC0000FF0033000033330033660033990033CC0033FF0066000066330066660066990066CC0066FF0099
310
000099330099660099990099CC0099FF00CC0000CC3300CC6600CC9900CCCC00CCFF00FF0000FF3300FF6600FF9900FFCC00FFFF3300003300333300663300993300CC3300FF3333003333333333663333993333CC3333FF3366003366333366663366993366CC3366FF3399003399333399663399993399CC3399FF33CC00
310
33CC3333CC6633CC9933CCCC33CCFF33FF0033FF3333FF6633FF9933FFCC33FFFF6600006600336600666600996600CC6600FF6633006633336633666633996633CC6633FF6666006666336666666666996666CC6666FF6699006699336699666699996699CC6699FF66CC0066CC3366CC6666CC9966CCCC66CCFF66FF0066
310
FF3366FF6666FF9966FFCC66FFFF9900009900339900669900999900CC9900FF9933009933339933669933999933CC9933FF9966009966339966669966999966CC9966FF9999009999339999669999999999CC9999FF99CC0099CC3399CC6699CC9999CCCC99CCFF99FF0099FF3399FF6699FF9999FFCC99FFFFCC0000CC00
310
33CC0066CC0099CC00CCCC00FFCC3300CC3333CC3366CC3399CC33CCCC33FFCC6600CC6633CC6666CC6699CC66CCCC66FFCC9900CC9933CC9966CC9999CC99CCCC99FFCCCC00CCCC33CCCC66CCCC99CCCCCCCCCCFFCCFF00CCFF33CCFF66CCFF99CCFFCCCCFFFFFF0000FF0033FF0066FF0099FF00CCFF00FFFF3300FF3333
310
FF3366FF3399FF33CCFF33FFFF6600FF6633FF6666FF6699FF66CCFF66FFFF9900FF9933FF9966FF9999FF99CCFF99FFFFCC00FFCC33FFCC66FFCC99FFCCCCFFCCFFFFFF00FFFF33FFFF66FFFF99FFFFCCFFFFFF0000000D0D0D1A1A1A2828283535354343435050505D5D5D6B6B6B787878868686939393A1A1A1AEAEAEBB
310
BBBBC9C9C9D6D6D6E4E4E4F1F1F1FFFFFF000000000000000000000000000000000000000000000000000000000000B0E2D2350000002D4944415478DAEDC13101000000C2A0F54FED6F06A00000000000000000000000000000000000000000000080335BC70001E79522D80000000049454E44AE426082
  0
ENDSEC
  0
EOF
